Присоединяйтесь к нам в Telegram!, здесь всегда актуальный адрес сайта, оперативная поддержка и многое другое!!

>

5.9

iTunes

7.4

iTunes

9.4

1 сезон

1

7.4

2 сезон

7.2

iTunes

7.3

1 сезон

13

6.1

iTunes

8.3

GOG

30

ULTIMATE

pack

9.9

Лицензия

ВАЖНО

ИГРА 18+

pack

7.3

RePack

MK11

7.7

RePack

jed

7.8

RePack

fifa19

8.5

RePack

RDR2

RePack

NEED FOR SPEED™ PAYBACK

5 сезон

9 сезон

Бесстыжие 9 сезон

Все сериалы

все сериалы на PB.wtf

RePack

FAR CRY 5

Anonymous, доброй ночи, мы катастрофически не успеваем собрать деньги на оплату серверов, помогите нам пожалуйста 5,10,15р., для нас важна любая помощь . В качестве благодарности мы отключим Вам всю рекламу на сайте (укажите свой ник в строку Ваше имя)!

×
  
Magnet ссылка

Сексуальные танцевальные клипы / Sexy Dance Clips of 2000s vol.2(2015) (VDJ Giannis Avgoustinakis) [ г., Adult music clips, House, Dance Music Mixing, WEB-DLRip 720p, Оригинал] pb.wtf

Сексуальные танцевальные клипы через торрент pb.wtf

Размер: 1.14 GB | Добавлен: 6 лет 6 мес. назад | Торрент скачан:331 раз
Смотреть онлайн Сексуальные танцевальные клипы | Скачать    Ребята, помогите собрать деньги на оплату серверов!!!

23-05-2015 09:21 Сексуальные танцевальные клипы Скачать торрент  

Сексуальные танцевальные клипы / Sexy Dance Clips of 2000s vol.2(2015)
Страна: All World
Жанр: Adult music clips, House, Dance Music Mixing
Продолжительность: 01:02:44
Перевод: Оригинал

Режиссер: VDJ Giannis Avgoustinakis

Описание:
Сексуальные танцевальные клипы-микс (часть 2)
01. Too $hort - Top Down
02. Shaggy Feat Tony Gold - Hey Sexy Lady (Remix) (Vj Eklpse Video Edit)
03. Khia - My neck, My back
04. Christina Aguilera, Pink, Lil' Kim & Mya - Lady Marmalade (9 Inches Remix) Dj MadMax Video Edit
05. Lisa Scott Lee - Electric
06. Lifelike and Kris Menace-Discopolis
07. Clara Morgane - Sexy Girl
08. Dannii Minogue - Put The Needle On It
09. Till West feat DJ Delicious - Same man
10. Alibi vs Rockefeller - Sexual Healing (Clean Version)
11. Krafty Kuts feat Yolanda - Tell me How you Feel
12. Houzecrushers - Touch Me
13. Daniel Hoppe feat Paul King - Love
14. Jason Nevins - I'm in heaven
15. Galleon - So I Begin
16. Narcotic Thrust - When The Dawn Breaks
17. Artificial Funk - Together
18. Joey Negro - Make a Move On Me
19. Angel City - Touch Me
20. Angel City feat. Lara McAllen - Love Me Right (Oh Sheila)
21. MSTRKRFT - Easy Love
22. Martin Solveig - Rocking music
23. Make The Girl Dance 'Baby Baby Baby'
24. Intenso Project Feat. Lisa Scott Lee - Get it on
25. Boogie Pimps - Sunny
26. Platinum Girls ft Vanessa Ignite My Fantasy
27. Freemasons - Watchin
28. Lisa Scott Lee - Too Far Gone
29. Sunblock - I'll Be Ready
30. Bob Sinclar presents Fireball What I want
31. Corenell vs Lisa Marie Experience - Keep On Jumpin (Dirty Version)
32. Axwell feat Steve Edwards - Watch the Sunrise
33. Mischa Daniels - Take me Higher
34. Noferini - Pra Sonhar (With Dj Guy and Hilary)
35. Ass Like That Dougie - Eminem feat Dj OJ
Качество: WEB-DLRip 720p
Формат: MP4
Видео кодек: AVC
Аудио кодек: AAC
Видео: AVC, 1280x720 (16:9), 29.970 fps, 2 428 Kbps (0.088 bit/pixel)
Аудио#1: AAC LC, 48.0 KHz, 2 ch, 160 Kbps, VBR
скриншот   скриншот   скриншот   скриншот  
скриншот   скриншот   скриншот   скриншот  

Общее
Полное имя : C:\Раздача\Клипы\Sexy Dance Clips of 2000s vol.2(2015).mp4
Формат : MPEG-4
Профиль формата : Base Media / Version 2
Идентификатор кодека : mp42
Размер файла : 1,14 Гбайт
Продолжительность : 1 ч. 2 м.
Режим общего битрейта : Переменный
Общий поток : 2592 Кбит/сек
Дата кодирования : UTC 2015-03-17 09:10:10
Дата пометки : UTC 2015-03-17 09:10:10

Видео
Идентификатор : 1
Формат : AVC
Формат/Информация : Advanced Video Codec
Профиль формата : High@L3.1
Параметр CABAC формата : Да
Параметр ReFrames формата : 4 кадра
Идентификатор кодека : avc1
Идентификатор кодека/Информация : Advanced Video Coding
Продолжительность : 1 ч. 2 м.
Битрейт : 2428 Кбит/сек
Ширина : 1280 пикселей
Высота : 720 пикселей
Соотношение сторон : 16:9
Режим частоты кадров : Постоянный
Частота кадров : 29,970 кадров/сек
Цветовое пространство : YUV
Субдискретизация насыщенности : 4:2:0
Битовая глубина : 8 бит
Тип развёртки : Прогрессивная
Бит/(Пиксели*Кадры) : 0.088
Размер потока : 1,06 Гбайт (94%)
Библиотека кодирования : x264 core 144 r11 40bb568
Настройки программы : cabac=1 / ref=3 / deblock=1:0:0 / analyse=0x3:0x113 / me=hex / subme=7 / psy=1 / psy_rd=1.00:0.00 / mixed_ref=1 / me_range=16 / chroma_me=1 / trellis=1 / 8x8dct=1 / cqm=0 / deadzone=21,11 / fast_pskip=1 / chroma_qp_offset=-2 / threads=72 / lookahead_threads=5 / sliced_threads=0 / nr=0 / decimate=1 / interlaced=0 / bluray_compat=0 / stitchable=1 / constrained_intra=0 / bframes=3 / b_pyramid=2 / b_adapt=1 / b_bias=0 / direct=1 / weightb=1 / open_gop=0 / weightp=2 / keyint=infinite / keyint_min=29 / scenecut=40 / intra_refresh=0 / rc_lookahead=40 / rc=crf / mbtree=1 / crf=20.0 / qcomp=0.60 / qpmin=5 / qpmax=69 / qpstep=4 / vbv_maxrate=2750 / vbv_bufsize=7500 / crf_max=0.0 / nal_hrd=none / filler=0 / ip_ratio=1.40 / aq=1:1.00
Дата кодирования : UTC 2015-03-17 09:10:10
Дата пометки : UTC 2015-03-17 09:10:10

Аудио
Идентификатор : 2
Формат : AAC
Формат/Информация : Advanced Audio Codec
Профиль формата : LC
Идентификатор кодека : 40
Продолжительность : 1 ч. 2 м.
Вид битрейта : Переменный
Битрейт : 160 Кбит/сек
Каналы : 2 канала
Расположение каналов : Front: L R
Частота : 48,0 КГц
Метод сжатия : С потерями
Размер потока : 71,8 Мбайт (6%)
Дата кодирования : UTC 2015-03-17 09:10:10
Дата пометки : UTC 2015-03-17 09:10:10

pb.wtf



Скачать Сексуальные танцевальные клипы через торрент https://pic.kartinco.top/images/11/lzbwn.jpg Скачать, смотреть онлайн Сексуальные танцевальные клипы бесплантно в хорошем качестве Описание: Сексуальные танцевальные клипы-микс (часть 2) Too $hort - Top Down Shaggy Feat Tony Gold - Hey Sexy Lady (Remix) (Vj ... 9.4 10 21
Info! Серебряная раздача, засчитывается только 50% скачанного.
Торрент: Зарегистрирован [2015-05-23 09:21] · скачан: 331 раз
Статус: √ проверено
Размер: 1.14 GB
Как cкачать? Как скачать Сексуальные танцевальные клипы через торрент | UTorrent

28-11-2019 20:33  

Отключить всю рекламу на сайте

    Дорогой пользователь! Огромная просьба, поблагодарите релизера, оцените раздачу и оставьте свои комментарий, если Вы скачали Сексуальные танцевальные клипы через торрент бесплатно!
    Комментировать посты могут только пользователи прошедшие не сложную регистрацию
    Показать сообщения:    

    Сексуальные танцевальные клипы через торрент
    Скачать бесплатно Сексуальные танцевальные клипы
    Сексуальные танцевальные клипы скачать торрент
    Сексуальные танцевальные клипы смотреть онлайн
    Cкачать фильм Сексуальные танцевальные клипы бесплатно
    Сексуальные танцевальные клипы скачать торрент в хорошем качестве
    Сексуальные танцевальные клипы смотреть онлайн бесплатно в хорошем качестве


    Вы не можете начинать темы
    Вы не можете отвечать на сообщения
    Вы не можете редактировать свои сообщения
    Вы не можете удалять свои сообщения
    Вы не можете голосовать в опросах
    Вы не можете прикреплять файлы к сообщениям
    Вы можете скачивать файлы