Ссылка на приватное зеркало нашего сайта всего за 1$. Внимание количество ограничено!!!

2 сезон

iTunes

1 сезон

1

iTunes

iTunes

iTunes

1 сезон

RePack

30

ИГРА 18+

pack

ВАЖНО

!!Акция!!

Alien_RageХит недели

RePack

MK11
pack

Забери бонус

RePack

jed

!!Акция!!

Alien_Rage

RePack

fifa19

RePack

Assassins Creed: Odyssey

RePack

NEED FOR SPEED™ PAYBACK

4 сезон

9 сезон

Бесстыжие 9 сезон

Все сериалы

все сериалы на PB.wtf

RePack

FAR CRY 5
  

Отголоски / Echoes (Нилс Тимм ) [2014, ужасы, триллер, драма, HDRip, Любительский (двухголосый) [2D] pb.wtf

Отголоски через торрент pb.wtf

Размер: 1.45 GB | Добавлен: 5 лет 5 мес. назад | Торрент скачан:182 раза
Скачать  

23-05-2015 09:39 Отголоски Скачать торрент  

Отголоски / Echoes


  • Год выпуска: 2014
  • Страна: США
  • Жанр: ужасы, триллер, драма
  • Продолжительность: 01:28:25
  • Перевод: Любительский (двухголосый) [2D]
  • Режиссёр: Нилс Тимм
  • В ролях:

    Стивен Брэнд (Paul Wagner), Билли Уэрт (Joe), Кейт Френч (Anna Parker), Стив Хэнкс (Jeremy), Дж.Дж. Нолан (Bartender), Кэролайн Уитни Смит (Vera Palm), Кевин Брюертон (Cop), Айвори Дортч (Emily)

    Любовники приезжают в красивый дом, расположенный в глухой местности, провести романтические выходные. Однако вскоре оказывается, что мужчине срочно требуется уехать на совещание. Девушка уговаривает оставить ее одну, чтоы в тишине и на свежем воздухе, она смогла начать писать новое произведение. Однако надежды на покой и вдохновение рассеялись, когда вокруг начали происходить таинственные и необъяснимые явления.
    Рейтинг:

  • Качество: HDRip
  • Формат: AVI
  • Видео кодек: XviD
  • Аудио кодек: AC3
  • Видео: XviD, 720x304 (2.35:1), 1694 kbps, 23,976 fps, 0,323 bpp
  • Аудио №1: AC3 / 2.0 / 48 kHz / 160 kbps / Russian
  • Аудио №2: AC3 / 5.1 / 48 kHz / 384 kbps / English

Код:

General
Complete name                            : D:\Торенты\Echoes.2014.L2.HDRip.1400Mb.avi
Format                                   : AVI
Format/Info                              : Audio Video Interleave
File size                                : 1.45 GiB
Duration                                 : 1h 28mn
Overall bit rate                         : 2 342 Kbps

Video
ID                                       : 0
Format                                   : MPEG-4 Visual
Format profile                           : Advanced Simple@L5
Format settings, BVOP                    : 2
Format settings, QPel                    : No
Format settings, GMC                     : No warppoints
Format settings, Matrix                  : Default (H.263)
Codec ID                                 : XVID
Codec ID/Hint                            : XviD
Duration                                 : 1h 28mn
Bit rate                                 : 1 694 Kbps
Width                                    : 720 pixels
Height                                   : 304 pixels
Display aspect ratio                     : 2.35:1
Frame rate                               : 23.976 fps
Color space                              : YUV
Chroma subsampling                       : 4:2:0
Bit depth                                : 8 bits
Scan type                                : Progressive
Compression mode                         : Lossy
Bits/(Pixel*Frame)                       : 0.323
Stream size                              : 1.05 GiB (72%)
Writing library                          : XviD 66

Audio #1
ID                                       : 1
Format                                   : AC-3
Format/Info                              : Audio Coding 3
Mode extension                           : CM (complete main)
Codec ID                                 : 2000
Duration                                 : 1h 28mn
Bit rate mode                            : Constant
Bit rate                                 : 160 Kbps
Channel(s)                               : 2 channels
Channel positions                        : Front: L R
Sampling rate                            : 48.0 KHz
Bit depth                                : 16 bits
Compression mode                         : Lossy
Stream size                              : 101 MiB (7%)
Alignment                                : Aligned on interleaves

Audio #2
ID                                       : 2
Format                                   : AC-3
Format/Info                              : Audio Coding 3
Mode extension                           : CM (complete main)
Codec ID                                 : 2000
Duration                                 : 1h 28mn
Bit rate mode                            : Constant
Bit rate                                 : 384 Kbps
Channel(s)                               : 6 channels
Channel positions                        : Front: L C R, Side: L R, LFE
Sampling rate                            : 48.0 KHz
Bit depth                                : 16 bits
Compression mode                         : Lossy
Stream size                              : 243 MiB (16%)
Alignment                                : Aligned on interleaves

Скриншоты:


© Оформление by Seff2pb.wtf



Скачать Отголоски через торрент http://i6.imageban.ru/out/2015/05/23/f2c5a12815400e89381986b179cda486.jpg Скачать фильм Отголоски через торрент бесплантно в хорошем качестве В ролях: Стивен Брэнд (Paul Wagner), Билли Уэрт (Joe), Кейт Френч (Anna Parker), Стив Хэнкс (Jeremy), Дж.Дж. Нолан (Bartender), ... 10 10 6
Торрент: Зарегистрирован [2015-05-23 09:39] · скачан: 182 раз
Статус: √ проверено
Размер: 1.45 GB
Как cкачать? Как скачать Отголоски через торрент | qTorrent

28-11-2019 20:33  

Отключить всю рекламу на сайте

    Дорогой пользователь! Огромная просьба, поблагодарите релизера, оцените раздачу и оставьте свои комментарий, если Вы скачали Отголоски через торрент бесплатно! Внесите свою лепту в развитие PiratBit!
    Комментировать посты могут только пользователи прошедшие не сложную регистрацию
    Показать сообщения:    

    Отголоски через торрент
    Скачать бесплатно Отголоски
    Отголоски скачать торрент
    Отголоски смотреть онлайн
    Cкачать фильм Отголоски бесплатно
    Отголоски скачать торрент в хорошем качестве
    Отголоски смотреть онлайн бесплатно в хорошем качестве


    Вы не можете начинать темы
    Вы не можете отвечать на сообщения
    Вы не можете редактировать свои сообщения
    Вы не можете удалять свои сообщения
    Вы не можете голосовать в опросах
    Вы не можете прикреплять файлы к сообщениям
    Вы можете скачивать файлы