новый адрес
Ссылка на приватное зеркало всего за 1$. Внимание количество ограничено!!!

iTunes

1+1

iTunes

мы

WEB-DL

1

iTunes

Чернобыль

iTunes

Ральф против интернета

Лицензия

ПШазам

Лицензия

Оно 2

Лицензия

30
pack

Вам бонус

ВАЖНО

!!Акция!!

Alien_RageХит недели

RePack

Resident Evil 21

ИГРА 18+

pack

RePack

jed

!!Акция!!

Alien_Rage

RePack

fifa19

RePack

Assassins Creed: Odyssey

RePack

NEED FOR SPEED™ PAYBACK

3 сезон

9 сезон

Бесстыжие 9 сезон

Все сериалы

все сериалы на PB.wtf

RePack

FAR CRY 5
Ребята, катастрофически не хватает 1900р. для оплаты серверов за Октябрь (всвязи с блокировками трафик упал в 3 раза), 1-2р., выручайте.
  

Штамм Андромеда / The Andromeda Strain (Роберт Уайз / Robert Wise) [1971, США, фантастика, триллер, BDRip-AVC] DVO pb.wtf

Штамм Андромеда через торрент pb.wtf

Раздают: 1 [ 0 KB/s ]
Размер: 1.45 GB | Добавлен: 4 года 6 мес. назад | Торрент скачан:40 раз
Скачать  

23-05-2015 13:43 Штамм Андромеда Скачать торрент  

Штамм Андромеда
The Andromeda Strain

«The picture runs 130 minutes!... The story covers 96 of the most critical hours in man's history!... The suspense will last through your lifetime!»




Страна: США
Жанр: фантастика, триллер
Год выпуска: 1971
Продолжительность: 02:10:37

Перевод: Профессиональный (двухголосый закадровый)
Cубтитры: нет
Оригинальная аудиодорожка: нет

Режиссер:
Роберт Уайз / Robert Wise

В ролях:
Джеймс Олсон, Кейт Рид, Дэвид Уэйн (I), Артур Хилл, Паула Келли, Джордж Митчелл, Рамон Биери, Кермит Мёрдок, Ричард О’Брайэн, Эрик Кристмас, Джо Ди Реда, Карл Райндел, Кен Соффорд, Фрэнсис Рейд, Ричард Булл, Харольд Дайренфорт, Джеймс В. Гэвин, Марк Дженкинс, Питер Хельм, Рубен Сингер, Питер Хоббс

Описание:
Фильм рассказывает историю о том как вместе с космическим зондом на Землю попадает инопланетный вирус — способный вызывать мутацию у заражённых людей. Большей частью действия фильма разворачивается в подземной военной лаборатории в сердце пустыни. В которой ученые исследуют инопланетный вирус и пытаются найти способы противостоять ему.


Релиз:

Автор рипа: Stalker oK

Сэмпл

Качество видео: BDRip-AVC [BDRemux 1080p-Lelya_K]
Формат видео: MKV
Видео кодек: AVC
Аудио кодек: AC3
Видео: 1399 Кбит/сек, 912*388 (2,35:1), в 23,976 кадр/сек, AVC
Аудио: Russian, 192 Кбит/сек, 48,0 КГц, 16 бит, 2 канала(ов), AC-3
Общее
Уникальный идентификатор : 234981520288132943623220488566503486354 (0xB0C7CB6CE0138229899985124B35B392)
Полное имя : L:\рипы\штамм андромеда\Shtamm.Andromeda.1971.BDRip-AVC.DVO.1.45Gb...stalkerok.new-team.mkv
Формат : Matroska
Размер файла : 1,45 Гбайт
Продолжительность : 2 ч. 10 м.
Общий поток : 1593 Кбит/сек
Название фильма : The Andromeda Strain, 1971 (New-Team) (Rip by Stalker oK)
Дата кодирования : UTC 2015-05-23 13:18:49
Программа кодирования : mkvmerge v7.9.0 ('Birds') 64bit
Библиотека кодирования : libebml v1.3.1 + libmatroska v1.4.2

Видео
Идентификатор : 1
Формат : AVC
Формат/Информация : Advanced Video Codec
Профиль формата : High@L4.1
Параметр CABAC формата : Да
Параметр ReFrames формата : 12 кадры
Идентификатор кодека : V_MPEG4/ISO/AVC
Продолжительность : 2 ч. 10 м.
Битрейт : 1399 Кбит/сек
Ширина : 912 пикс.
Высота : 388 пикс.
Соотношение сторон : 2,35:1
Частота кадров : 23,976 кадр/сек
Цветовое пространство : YUV
Подвыборка цветности : 4:2:0
Битовая глубина : 8 бит
Тип развёртки : Прогрессивная
Бит/(Пиксели*Кадры) : 0.165
Размер потока : 1,25 Гбайт (86%)
Библиотека кодирования : x264 core 146 r2538 121396c
Настройки программы : cabac=1 / ref=12 / deblock=1:-3:-3 / analyse=0x3:0x133 / me=umh / subme=11 / psy=1 / psy_rd=1.00:0.05 / mixed_ref=1 / me_range=32 / chroma_me=1 / trellis=2 / 8x8dct=1 / cqm=0 / deadzone=21,11 / fast_pskip=0 / chroma_qp_offset=-3 / threads=12 / lookahead_threads=3 / sliced_threads=0 / nr=0 / decimate=0 / interlaced=0 / bluray_compat=0 / constrained_intra=0 / bframes=14 / b_pyramid=2 / b_adapt=2 / b_bias=0 / direct=3 / weightb=1 / open_gop=0 / weightp=2 / keyint=240 / keyint_min=23 / scenecut=40 / intra_refresh=0 / rc_lookahead=40 / rc=2pass / mbtree=0 / bitrate=1399 / ratetol=1.0 / qcomp=0.65 / qpmin=0 / qpmax=69 / qpstep=4 / cplxblur=20.0 / qblur=0.5 / vbv_maxrate=50000 / vbv_bufsize=62500 / nal_hrd=none / filler=0 / ip_ratio=1.30 / pb_ratio=1.20 / aq=3:1.00

Аудио
Идентификатор : 2
Формат : AC-3
Формат/Информация : Audio Coding 3
Расширение режима : CM (complete main)
Идентификатор кодека : A_AC3
Продолжительность : 2 ч. 10 м.
Вид битрейта : Постоянный
Битрейт : 192 Кбит/сек
Канал(ы) : 2 канала(ов)
Расположение каналов : Front: L R
Частота : 48,0 КГц
Битовая глубина : 16 бит
Метод сжатия : С потерями
Размер потока : 179 Мбайт (12%)
Заголовок : AC3 2.0 / 192 kbps / DVO
Язык : Russian

Меню
00:00:00.000 : en:Chapter 1
00:05:11.894 : en:Chapter 2
00:16:15.557 : en:Chapter 3
00:25:54.427 : en:Chapter 4
00:32:37.121 : en:Chapter 5
00:46:12.060 : en:Chapter 6
00:55:11.725 : en:Chapter 7
01:09:42.678 : en:Chapter 8
01:28:06.823 : en:Chapter 9
01:41:52.773 : en:Chapter 10
01:53:46.778 : en:Chapter 11
02:02:49.570 : en:Chapter 12
pb.wtf



Скачать Штамм Андромеда через торрент http://i4.imageban.ru/out/2013/11/20/23afd37ba301cf29b16658cd2201c4ed.png Скачать фильм Штамм Андромеда через торрент бесплантно в хорошем качестве Описание:Фильм рассказывает историю о том как вместе с космическим зондом на Землю попадает инопланетный вирус — способный вызывать мутацию ... 10 10 5
Info! Золотая раздача, скачанное не засчитывается.
Торрент: Зарегистрирован [2015-05-23 13:43] · скачан: 40 раз
Статус: √ проверено
Размер: 1.45 GB
Как cкачать? Как скачать Штамм Андромеда через торрент | qTorrent

% Раздел Тема Автор DL S | L
Классика зарубежного кино [ 2.18 GB ] Штамм Андромеда / The Andromeda Strain [1971 BDRip-AVC] DVO + Original + Sub sokol_ok Скачать
3 | 0

28-11-2019 20:33  

Отключить всю рекламу на сайте

    Дорогой пользователь! Огромная просьба, поблагодарите релизера, оцените раздачу и оставьте свои комментарий, если Вы скачали Штамм Андромеда через торрент бесплатно! Внесите свою лепту в развитие PiratBit!
    Комментировать посты могут только пользователи прошедшие не сложную регистрацию
    Показать сообщения:    

    Штамм Андромеда через торрент
    Скачать бесплатно Штамм Андромеда
    Штамм Андромеда скачать торрент
    Штамм Андромеда смотреть онлайн
    Cкачать фильм Штамм Андромеда бесплатно
    Штамм Андромеда скачать торрент в хорошем качестве
    Штамм Андромеда смотреть онлайн бесплатно в хорошем качестве


    Вы не можете начинать темы
    Вы не можете отвечать на сообщения
    Вы не можете редактировать свои сообщения
    Вы не можете удалять свои сообщения
    Вы не можете голосовать в опросах
    Вы не можете прикреплять файлы к сообщениям
    Вы можете скачивать файлы