Ссылка на приватное зеркало нашего сайта всего за 1$. Внимание количество ограничено!!!

2 сезон

iTunes

1 сезон

1

2 сезон

2 сезон

iTunes

1 сезон

RePack

30

Новинка

ВАЖНО

ИГРА 18+

pack

RePack

MK11
pack

Забери бонус

RePack

jed

!!Акция!!

Alien_Rage

RePack

fifa19

RePack

Assassins Creed: Odyssey

RePack

NEED FOR SPEED™ PAYBACK

4 сезон

9 сезон

Бесстыжие 9 сезон

Все сериалы

все сериалы на PB.wtf

RePack

FAR CRY 5
  

Бесконечность / Infini (Шейн Эббесс / Shane Abbess) [2015, Австралия, фантастика, триллер, драма, WEB-DLRip, Любительский (двухголосый) [RAIM&NASTR] pb.wtf

Бесконечность через торрент pb.wtf

Размер: 1.45 GB | Добавлен: 5 лет 6 мес. назад | Торрент скачан:328 раз
Скачать  

24-05-2015 02:11 Бесконечность Скачать торрент  

Бесконечность / Infini


  • Год выпуска: 2015
  • Страна: Австралия
  • Жанр: фантастика, триллер, драма
  • Продолжительность: 01:50:42
  • Перевод: Любительский (двухголосый) [RAIM&NASTR]

  • Режиссер: Шейн Эббесс / Shane Abbess
  • В ролях:

    Дэниэл МакФерсон (Whit Carmichael), Грэйс Хуанг (Claire Grenich), Люк Хемсворт (Charlie Kent), Брен Фостер (Morgan Jacklar), Люк Форд (Chester Huntington), Дуэйн Стивенсон (Rex Mannings), Луиса Миньоне (Philipa Boxen), Тесс Хобрич (Lisa Carmichael), Гарри Павлидис (Harris Menzies), Кевин Коуплэнд (Seet Johanson), Энди Родореда (Sefton Norick), Ричард Хаггетт (Montoli)

  • Описание:
    На отдаленном горнодобывающем комплексе произошла ужасающая биологическая катастрофа, которая привела к тому, что все находящиеся там люди были заражены каким-то неизвестным смертоносным вирусом, и в конечном итоге это привело к их смерти. Расследовать это страшное событие поручили секретному и элитному отряду бойцов, которые должны были отправиться на территорию этого комплекса, чтобы разобраться, почему произошла эта катастрофа и насколько быстро распространяется этот вирус. Прибывши на место, к удивлению бойцов, в комплексе остался один живой человек, этот Уит Кармайкл. Спецотряд сразу же заинтересовался тем, как же Уиту удалось не заразиться этим страшным вирусом, и чтобы найти ответ на этот вопрос им придется узнать страшную правду об этом человеке. Кто же такой Уит Кармайкл на самом деле? Чем закончиться эта спасательная операция?
  • Рейтинг:



  • Качество: WEB-DLRip
  • Формат: :AVI
  • Видео кодек: XviD
  • Аудио кодек: AC3
  • Видео: 720x304 (2.35:1), 1671 kbps, 23,976 fps, 0,319 bpp
  • Аудио: 2.0 / 48 kHz / 192 kbps / 16 bit
  • Релиз от: GEKADOL

    Код:

    General
    Complete name                            : F:\Infini.2015.L2.WEB-DLRip.avi
    Format                                   : AVI
    Format/Info                              : Audio Video Interleave
    File size                                : 1.45 GiB
    Duration                                 : 1h 50mn
    Overall bit rate                         : 1 873 Kbps
    Writing application                      : VirtualDubMod 1.5.10.3 | www.virtualdub-fr.org || (build 2550/release)
    Writing library                          : VirtualDubMod build 2550/release

    Video
    ID                                       : 0
    Format                                   : MPEG-4 Visual
    Format profile                           : Advanced Simple@L5
    Format settings, BVOP                    : 2
    Format settings, QPel                    : No
    Format settings, GMC                     : No warppoints
    Format settings, Matrix                  : Default (MPEG)
    Muxing mode                              : Packed bitstream
    Codec ID                                 : XVID
    Codec ID/Hint                            : XviD
    Duration                                 : 1h 50mn
    Bit rate                                 : 1 671 Kbps
    Width                                    : 720 pixels
    Height                                   : 304 pixels
    Display aspect ratio                     : 2.35:1
    Frame rate                               : 23.976 fps
    Color space                              : YUV
    Chroma subsampling                       : 4:2:0
    Bit depth                                : 8 bits
    Scan type                                : Progressive
    Compression mode                         : Lossy
    Bits/(Pixel*Frame)                       : 0.319
    Stream size                              : 1.29 GiB (89%)
    Writing library                          : XviD 73

    Audio
    ID                                       : 1
    Format                                   : AC-3
    Format/Info                              : Audio Coding 3
    Mode extension                           : CM (complete main)
    Codec ID                                 : 2000
    Duration                                 : 1h 50mn
    Bit rate mode                            : Constant
    Bit rate                                 : 192 Kbps
    Channel(s)                               : 2 channels
    Channel positions                        : Front: L R
    Sampling rate                            : 48.0 KHz
    Bit depth                                : 16 bits
    Compression mode                         : Lossy
    Stream size                              : 152 MiB (10%)
    Alignment                                : Split accross interleaves
    Interleave, duration                     : 42 ms (1.00 video frame)
    Interleave, preload duration             : 500 ms




    Скриншоты:



    pb.wtf



  • Скачать Бесконечность через торрент http://i1.imageban.ru/out/2015/05/24/4e334b7a6eb88ae2c60641ea376b6fb3.jpg Скачать фильм Бесконечность через торрент бесплантно в хорошем качестве Описание: На отдаленном горнодобывающем комплексе произошла ужасающая биологическая катастрофа, которая привела к тому, что все находящиеся ... 8.8 10 5
    Торрент: Зарегистрирован [2015-05-24 02:11] · скачан: 328 раз
    Статус: T временная
    Размер: 1.45 GB
    Как cкачать? Как скачать Бесконечность через торрент | qTorrent

    % Раздел Тема Автор DL S | L
    Фильмы (HD 720p, 1080p) (48-60 fps) [ 5.8 GB ] Мстители: Война бесконечности / Avengers: Infinity War [2018 WEB-DLRip 720p / 60 FPS ] от R.G. HD-Films slaventi-69 Скачать
    1 | 0
    Фильмы (HD 720p, 1080p) (48-60 fps) [ 12.02 GB ] Мстители: Война бесконечности / Avengers: Infinity War [2018 BDRip - HEVC 1080p 12 bit 60 FPS] - dd2d3 Скачать
    4 | 0
    Ultra HD (UHD: 2K, 4K, 8K) — видео сверхвысокой чёткости [ 59.35 GB ] Мстители: Война бесконечности / Avengers: Infinity War [2018 UHD BDRemux 2160p] DUB [] + AVO sheker187 Скачать
    4 | 1
    3D Фильмы [ 12.46 GB ] Мстители: Война бесконечности 3Д / Avengers: Infinity War 3D [2018 BDRip 1080p] [Half OverUnder / Вертикальная анаморфная стереопара] DUB [] bober100 Скачать
    2 | 0
    Фильмы [HD 720p, 1080p] (Хороший звук DUB, MVO) [ 7.57 GB ] Мстители: Война бесконечности / Avengers: Infinity War [2018 BDRip 1080p HEVC ()] Мичман37 Скачать
    3 | 0
    T Фильмы (мультфильмы) cо спонсором показа (Новинки AVI/MKV) [ 3.62 GB ] Микеланджело. Бесконечность / Michelangelo - Infinito [2018 биография WEB-DL 720p] MVO [Официальный звук] bober100 Скачать
    1 | 0
    T Фильмы (мультфильмы) cо спонсором показа (Новинки AVI/MKV) [ 1.37 GB ] Микеланджело. Бесконечность / Michelangelo - Infinito [2018 биография WEB-DLRip] MVO [Официальный звук] bober100 Скачать
    1 | 0

    28-11-2019 20:33  

    Отключить всю рекламу на сайте

      Дорогой пользователь! Огромная просьба, поблагодарите релизера, оцените раздачу и оставьте свои комментарий, если Вы скачали Бесконечность через торрент бесплатно! Внесите свою лепту в развитие PiratBit!
      Комментировать посты могут только пользователи прошедшие не сложную регистрацию
      Показать сообщения:    

      Бесконечность через торрент
      Скачать бесплатно Бесконечность
      Бесконечность скачать торрент
      Бесконечность смотреть онлайн
      Cкачать фильм Бесконечность бесплатно
      Бесконечность скачать торрент в хорошем качестве
      Бесконечность смотреть онлайн бесплатно в хорошем качестве


      Вы не можете начинать темы
      Вы не можете отвечать на сообщения
      Вы не можете редактировать свои сообщения
      Вы не можете удалять свои сообщения
      Вы не можете голосовать в опросах
      Вы не можете прикреплять файлы к сообщениям
      Вы можете скачивать файлы