1 сезон

1 сезон

iTunes

1

КиноПоиск HD

Кинопоиск HD

iTunes

13

1 сезон

RePack

30

Ultimate

ВАЖНО

ИГРА 18+

pack

RePack

MK11
pack

Легкие деньги

RePack

jed

RePack

fifa19

RePack

RDR2

RePack

NEED FOR SPEED™ PAYBACK

4 сезон

9 сезон

Бесстыжие 9 сезон

Все сериалы

все сериалы на PB.wtf

RePack

FAR CRY 5
  
Magnet ссылка

Джиперс Криперс / Jeepers Creepers (Виктор Сальва ) [2001, ужасы, триллер, BDRip-AVC, Дубляж, Авторский (одноголосый)] pb.wtf

Джиперс Криперс через торрент pb.wtf

Размер: 2.43 GB | Добавлен: 5 лет 10 мес. назад | Торрент скачан:1 раз
Скачать  

24-05-2015 06:34 Джиперс Криперс Скачать торрент  

Джиперс Криперс / Jeepers Creepers


  • Год выпуска: 2001
  • Страна: Германия, США
  • Жанр: ужасы, триллер
  • Продолжительность: 01:30:42
  • Перевод: Дубляж
    Авторский (одноголосый)

  • Субтитры: русские,
  • Режиссёр: Виктор Сальва
  • В ролях:

    Джина Филипс (Patricia «Trish» Jenner), Джастин Лонг (Darry Jenner), Джонатан Брек (The Creeper / Bald Cop), Патриция Белчер (Jezelle Gay Hartman), Айлин Бреннан (The Cat Lady), Брэндон Смит (Sgt. David Tubbs), Пегги Шеффилд (Waitress Beverly), Джеффри Уильям Эванс (Restaurant Manager), Патрик Черри (Binky Plutzker), Джон Бешара (Officer Robert Gideon), Авис-Мари Барнс (Officer Natasha Weston), Стив Ролерсон (Cellblock Officer)

    Если бы Дэрри и Триш знали, во что превратится их обычное путешествие домой на каникулы, то остались бы в колледже навсегда. Брат и сестра заметили его на безлюдной дороге рядом с жуткой, обветшалой церковью. Страшная фигура в длинном чёрном плаще и широкополой шляпе скидывала в подвал свертки, испачканные чем-то красным. После увиденного нужно было немедленно вдавить педаль газа взятой напрокат машины и умчаться от этого проклятого места как можно дальше. Но Дэрри и Триш допустили непоправимую, смертельную ошибку. Они решили вернуться и посмотреть: что же он прячет там, в подвале покосившейся церкви? Это безрассудное любопытство обернулось самым невообразимым кошмаром, который только можно себе представить...
    Рейтинг:

  • Качество: BDRip-AVC
  • Формат: MKV
  • Видео кодек: AVC
  • Аудио кодек: AC3
  • Видео: AVC, 1024x556 (16:9), 2500 kbps, 23,976 fps, 0,183 bpp
  • Аудио №1: русский / AC3 / 5.1 / 48 kHz / 448 kbps / 16 bit |Дубляж|
  • Аудио №2: русский / AC3 / 5.1 / 48 kHz / 448 kbps / 16 bit |Авторский (одноголосый)|
  • Аудио №3: английский / AC3 / 5.1 / 48 kHz / 448 kbps / 16 bit

Код:

General
Unique ID                                : 201828676101283710205886333242751732103 (0x97D6CA020FA27A1385FCDD3964AA4987)
Complete name                            : D:\закачки\Джиперс Криперс.mkv
Format                                   : Matroska
Format version                           : Version 2
File size                                : 2.43 GiB
Duration                                 : 1h 30mn
Overall bit rate                         : 3 842 Kbps
Movie name                               : Dzhipers.Kripers.2001.x264.BDRip.(AVC).ExKinoRay  (Rip by Enigma-Vladislav71)
Encoded date                             : UTC 2012-05-05 17:20:37
Writing application                      : mkvmerge v4.0.0 ('The Stars were mine') сборка от Jun  6 2010 16:18:42
Writing library                          : libebml v1.0.0 + libmatroska v1.0.0

Video
ID                                       : 1
Format                                   : AVC
Format/Info                              : Advanced Video Codec
Format profile                           : High@L4.1
Format settings, CABAC                   : Yes
Format settings, ReFrames                : 6 frames
Codec ID                                 : V_MPEG4/ISO/AVC
Duration                                 : 1h 30mn
Bit rate                                 : 2 500 Kbps
Width                                    : 1 024 pixels
Height                                   : 556 pixels
Display aspect ratio                     : 16:9
Frame rate                               : 23.976 fps
Color space                              : YUV
Chroma subsampling                       : 4:2:0
Bit depth                                : 8 bits
Scan type                                : Progressive
Bits/(Pixel*Frame)                       : 0.183
Stream size                              : 1.53 GiB (63%)
Title                                    : Rip by Enigma-Vladislav71
Writing library                          : x264 core 116 r2074 2641b9e
Encoding settings                        : cabac=1 / ref=6 / deblock=1:-2:-1 / analyse=0x3:0x133 / me=umh / subme=7 / psy=1 / psy_rd=1.00:0.00 / mixed_ref=1 / me_range=24 / chroma_me=1 / trellis=2 / 8x8dct=1 / cqm=0 / deadzone=21,11 / fast_pskip=0 / chroma_qp_offset=-2 / threads=3 / sliced_threads=0 / nr=0 / decimate=1 / interlaced=0 / bluray_compat=0 / constrained_intra=0 / bframes=6 / b_pyramid=2 / b_adapt=2 / b_bias=0 / direct=3 / weightb=1 / open_gop=0 / weightp=2 / keyint=250 / keyint_min=23 / scenecut=40 / intra_refresh=0 / rc=2pass / mbtree=0 / bitrate=2500 / ratetol=1.0 / qcomp=0.60 / qpmin=10 / qpmax=51 / qpstep=4 / cplxblur=20.0 / qblur=0.5 / ip_ratio=1.40 / pb_ratio=1.30 / aq=2:1.00
Language                                 : English
Default                                  : No
Forced                                   : No

Audio #1
ID                                       : 2
Format                                   : AC-3
Format/Info                              : Audio Coding 3
Mode extension                           : CM (complete main)
Codec ID                                 : A_AC3
Duration                                 : 1h 30mn
Bit rate mode                            : Constant
Bit rate                                 : 448 Kbps
Channel(s)                               : 6 channels
Channel positions                        : Front: L C R, Side: L R, LFE
Sampling rate                            : 48.0 KHz
Bit depth                                : 16 bits
Compression mode                         : Lossy
Stream size                              : 291 MiB (12%)
Title                                    : Дублированный
Language                                 : Russian
Default                                  : Yes
Forced                                   : No

Audio #2
ID                                       : 3
Format                                   : AC-3
Format/Info                              : Audio Coding 3
Mode extension                           : CM (complete main)
Codec ID                                 : A_AC3
Duration                                 : 1h 30mn
Bit rate mode                            : Constant
Bit rate                                 : 448 Kbps
Channel(s)                               : 6 channels
Channel positions                        : Front: L C R, Side: L R, LFE
Sampling rate                            : 48.0 KHz
Bit depth                                : 16 bits
Compression mode                         : Lossy
Stream size                              : 291 MiB (12%)
Title                                    : Живов
Language                                 : Russian
Default                                  : No
Forced                                   : No

Audio #3
ID                                       : 4
Format                                   : AC-3
Format/Info                              : Audio Coding 3
Mode extension                           : CM (complete main)
Codec ID                                 : A_AC3
Duration                                 : 1h 30mn
Bit rate mode                            : Constant
Bit rate                                 : 448 Kbps
Channel(s)                               : 6 channels
Channel positions                        : Front: L C R, Side: L R, LFE
Sampling rate                            : 48.0 KHz
Bit depth                                : 16 bits
Compression mode                         : Lossy
Stream size                              : 291 MiB (12%)
Title                                    : английский
Language                                 : English
Default                                  : No
Forced                                   : No

Text
ID                                       : 5
Format                                   : UTF-8
Codec ID                                 : S_TEXT/UTF8
Codec ID/Info                            : UTF-8 Plain Text
Language                                 : Russian
Default                                  : Yes
Forced                                   : No

Скриншоты:


© Оформление by Seff2pb.wtf



Скачать Джиперс Криперс через торрент http://i71.fastpic.ru/big/2015/0524/f8/a9879a970c34af0a5c87ecafdf528ff8.png Скачать фильм Джиперс Криперс через торрент бесплантно в хорошем качестве В ролях: Джина Филипс (Patricia «Trish» Jenner), Джастин Лонг (Darry Jenner), Джонатан Брек (The Creeper / Bald Cop), ... 8.8 10 5
Торрент: Зарегистрирован [2015-05-24 06:34] · скачан: 1 раз
Статус: √ проверено
Размер: 2.43 GB
Как cкачать? Как скачать Джиперс Криперс через торрент | UTorrent

% Раздел Тема Автор DL S | L
Фильмы с авторской озвучкой [ 1.6 GB ] Джиперс Криперс 3 / Крылатый охотник 3 / Jeepers Creepers 3 [2017 BDRip] 2x[AVO] killermax2013 Скачать
1 | 0
Фильмы [HD 720p, 1080p] (Хороший звук DUB, MVO) [ 5 GB ] Джиперс Криперс 3 / Jeepers Creepers 3 [2017 BDRip 720p] bober100 Скачать
1 | 0
Фильмы 2017 [DVDrip, WEB-DLRip, HDrip] (DUB, MVO) [ 1.42 GB ] Джиперс Криперс 3 / Jeepers Creepers 3 [2017 BDRip] - Twi7ter Скачать
1 | 0
Фильмы [HD 720p, 1080p] (Хороший звук DUB, MVO) [ 10.98 GB ] Джиперс Криперс 3 / Jeepers Creepers 3 [2017 BDRip 1080p] killermax2013 Скачать
1 | 0
Фильмы (Blu-ray, BD-Remux, HDDVD) [ 19.13 GB ] Джиперс Криперс 3 / Jeepers Creepers 3 [2017 Blu-Ray Remux 1080p] killermax2013 Скачать
1 | 0
Фильмы 2001-2005 [ 1.45 GB ] Джиперс Криперс / Jeepers Creepers [2001 BDRip-AVC] DUB AVO Eng Sub serg7628 Скачать
1 | 0
Сборники и Сиквелы (48-60 fps) [ 20.96 GB ] Джиперс Криперс: Дилогия / Jeepers Creepers: Dilogy [2001-2002 Германия BDRip 1080p / 60 FPS ] Tiberiumsun69 Скачать
1 | 0


Последний раз редактировалось: Seff2 (2015-05-24 09:49), всего редактировалось 1 раз

28-11-2019 20:33  

Отключить всю рекламу на сайте

24-05-2015 08:01 Джиперс Криперс Скачать торрент  

это комедия sarcastic вторая часть вообще угар sarcastic третья должна была выйти давно но походу на нее забили.Не плохо бы указать что за авторский переводчик,может там школоло любитель какойpb.wtf



    Дорогой пользователь! Огромная просьба, поблагодарите релизера, оцените раздачу и оставьте свои комментарий, если Вы скачали Джиперс Криперс через торрент бесплатно! Внесите свою лепту в развитие PiratBit!
    Комментировать посты могут только пользователи прошедшие не сложную регистрацию
    Показать сообщения:    

    Джиперс Криперс через торрент
    Скачать бесплатно Джиперс Криперс
    Джиперс Криперс скачать торрент
    Джиперс Криперс смотреть онлайн
    Cкачать фильм Джиперс Криперс бесплатно
    Джиперс Криперс скачать торрент в хорошем качестве
    Джиперс Криперс смотреть онлайн бесплатно в хорошем качестве


    Вы не можете начинать темы
    Вы не можете отвечать на сообщения
    Вы не можете редактировать свои сообщения
    Вы не можете удалять свои сообщения
    Вы не можете голосовать в опросах
    Вы не можете прикреплять файлы к сообщениям
    Вы можете скачивать файлы