2 сезон

iTunes

1 сезон

1

iTunes

iTunes

iTunes

1 сезон

RePack

30

ИГРА 18+

pack

ВАЖНО

!!Акция!!

Alien_RageХит недели

RePack

MK11
pack

Забери бонус

RePack

jed

!!Акция!!

Alien_Rage

RePack

fifa19

RePack

Assassins Creed: Odyssey

RePack

NEED FOR SPEED™ PAYBACK

4 сезон

9 сезон

Бесстыжие 9 сезон

Все сериалы

все сериалы на PB.wtf

RePack

FAR CRY 5
  

Шаманка / Сезон: 1 / Серии: 1-20 из 20 (Анна Богуславская (II)) [2015, Россия, детектив, SATRip-AVC] pb.wtf

Шаманка через торрент pb.wtf

Размер: 11.64 GB | Добавлен: 5 лет 1 мес. назад | Торрент скачан:129 раз
Скачать  

24-05-2015 08:00 Шаманка Скачать торрент  

Шаманка Год выпуска: 2015
Производство: Россия,Студия "Панорама"
Жанр: детектив
Продолжительность: 00:43:00 серия
Субтитры: нет

Режиссёр: Анна Богуславская (II)

В ролях: Инна Коляда, Андрей Казаков, Елена Драпеко, Алексей Винников, Андрей Перович, Юрий Архангельский, Андрей Мокеев, Максим Пономарев, Юлия Гришаева, Геннадий Смирнов, Тимофей Гаврилов, Евгения Латонина, Андрей Павловец, Елена Никонорова, Павел Миронов, Илья Борисов, Варвара Маркевич, Татьяна Ткач (II), Наталья Чичканова, Екатерина Зорина, Варвара Павлова, Алексей Зубков, Олег Попов (II), Марина Даминева, Андрей Анкудинов (II), Валерия Шкирандо, Владислав Резник, Леонид Коронов, Евгения Яхонтова, Ольга Каратеева, Мира Мордасова, Мария Павлова, Вячеслав Гасай, Ольга Павлюкова, Наталья Гусева (IV), Юлия Нижельская, Алла Галицкая, Светлана Бакулина, Татьяна Лукьянчикова

Описание: Преуспевающий кредитный консультант коммерческого банка Марина Белозёрова после гибели жениха Эрика не находит себе места от горя и безысходности. Очнувшись от мрачного забытья, Марина вспоминает свою встречу с начальником отдела по раскрытию умышленных убийств Владимиром Уваровым, с которым она случайно познакомилась в салоне самолёта. В тот раз Белозёрова спасла всех пассажиров и членов экипажа, вовремя заметив, что пилот находится в прединсультном состоянии. Под впечатлением от невероятной прозорливости и острого ума Марины, Уваров сразу же предложил ей работу в полиции, и теперь она решает принять его предложение, чтобы найти убийцу своего возлюбленного…



Качество: SATRip-AVC
Формат: MKV
Видео кодек: H.264
Аудио кодек: AC3
Видео: MPEG4 Video (H264), 720x400, 25fps,2133 Kbps,bit/pixel 0.269
Аудио: AC3 48000Hz, stereo, 192kbps,2 ch
Общее
Уникальный идентификатор : 189867377010752074052333608446517706094 (0x8ED7206E69068B94A80FAADDEF51FD6E)
Полное имя : E:\Шаманка\01 серия.mkv
Формат : Matroska
Версия формата : Version 2
Размер файла : 598 Мбайт
Продолжительность : 39 м.
Общий поток : 2133 Кбит/сек
Дата кодирования : UTC 2015-08-24 23:40:03
Программа кодирования : mkvmerge v6.1.0 ('Old Devil') built on Mar 4 2013 09:10:42
Библиотека кодирования : libebml v1.3.0 + libmatroska v1.4.0

Видео
Идентификатор : 1
Формат : AVC
Формат/Информация : Advanced Video Codec
Профиль формата : High@L4.1
Параметр CABAC формата : Да
Параметр ReFrames формата : 9 кадров
Идентификатор кодека : V_MPEG4/ISO/AVC
Продолжительность : 39 м.
Битрейт : 1939 Кбит/сек
Ширина : 720 пикселей
Высота : 400 пикселей
Соотношение сторон : 16:9
Режим частоты кадров : Постоянный
Частота кадров : 25,000 кадров/сек
Цветовое пространство : YUV
Субдискретизация насыщенности : 4:2:0
Битовая глубина : 8 бит
Тип развёртки : Прогрессивная
Бит/(Пиксели*Кадры) : 0.269
Размер потока : 532 Мбайт (89%)
Библиотека кодирования : x264 core 130 r2273 b3065e6
Настройки программы : cabac=1 / ref=9 / deblock=1:-2:-2 / analyse=0x3:0x133 / me=umh / subme=9 / psy=1 / psy_rd=1.00:0.00 / mixed_ref=0 / me_range=16 / chroma_me=1 / trellis=1 / 8x8dct=1 / cqm=0 / deadzone=21,11 / fast_pskip=1 / chroma_qp_offset=-2 / threads=4 / lookahead_threads=4 / sliced_threads=0 / nr=0 / decimate=1 / interlaced=0 / bluray_compat=0 / constrained_intra=0 / bframes=9 / b_pyramid=2 / b_adapt=1 / b_bias=0 / direct=3 / weightb=1 / open_gop=0 / weightp=2 / keyint=250 / keyint_min=25 / scenecut=40 / intra_refresh=0 / rc_lookahead=40 / rc=2pass / mbtree=1 / bitrate=1939 / ratetol=1.0 / qcomp=0.60 / qpmin=0 / qpmax=69 / qpstep=4 / cplxblur=20.0 / qblur=0.5 / ip_ratio=1.40 / aq=1:1.00
Default : Да
Forced : Нет
Цветовой диапазон : Limited
Основные цвета : BT.601 PAL
Характеристики трансфера : BT.470 System B, BT.470 System G
Коэффициенты матрицы : BT.601

Аудио
Идентификатор : 2
Формат : AC-3
Формат/Информация : Audio Coding 3
Расширение режима : CM (complete main)
Параметр Endianness формата : Big
Идентификатор кодека : A_AC3
Продолжительность : 39 м.
Вид битрейта : Постоянный
Битрейт : 192 Кбит/сек
Каналы : 2 канала
Расположение каналов : Front: L R
Частота : 48,0 КГц
Метод сжатия : С потерями
Размер потока : 53,9 Мбайт (9%)
Default : Да
Forced : Нет
Внимание! Раздача ведётся путём добавления новых серий; при каждом добавлении создаётся новый торрент.
Чтобы начать докачку новой серии, пользователям необходимо сделать следующее:
1. Остановить скачивание;
2. Удалить старый торрент у себя из клиента (старые серии удалять не надо);
3. Скачать новый торрент и запустить его у себя в клиенте вместо старого, при этом указать клиенту путь в старую папку куда и должно происходить скачивание новых серий. Ваш клиент при этом должен произвести хеширование (проверку) старой папки и будет докачивать только те серии, которых у вас ещё нет. Старые серии при этом не удаляются, а продолжают раздаваться! Eсли вы уже удалили старые серии, то предотвратить повторную закачку старых серий можно, отжав галочку в соответствующих местах при запуске нового торрента.
Рекламы нет.Добавлены 17-20 серии.Торрент перезалит, серии заменены с телеканала Россия.Серии по порядку.pb.wtf



Скачать Шаманка через торрент http://i71.fastpic.ru/big/2015/0524/9d/13c24de91631240a84535479837cc49d.jpg Скачать фильм Шаманка через торрент бесплантно в хорошем качестве Описание: Преуспевающий кредитный консультант коммерческого банка Марина Белозёрова после гибели жениха Эрика не находит себе места от горя ... 9.2 10 12
Торрент: Зарегистрирован [2015-09-02 01:13] · скачан: 129 раз
Статус: √ проверено
Размер: 11.64 GB
Как cкачать? Как скачать Шаманка через торрент | qTorrent

28-11-2019 20:33  

Отключить всю рекламу на сайте

    Дорогой пользователь! Огромная просьба, поблагодарите релизера, оцените раздачу и оставьте свои комментарий, если Вы скачали Шаманка через торрент бесплатно! Внесите свою лепту в развитие PiratBit!
    Комментировать посты могут только пользователи прошедшие не сложную регистрацию
    Показать сообщения:    

    Шаманка через торрент
    Скачать бесплатно Шаманка
    Шаманка скачать торрент
    Шаманка смотреть онлайн
    Cкачать фильм Шаманка бесплатно
    Шаманка скачать торрент в хорошем качестве
    Шаманка смотреть онлайн бесплатно в хорошем качестве


    Вы не можете начинать темы
    Вы не можете отвечать на сообщения
    Вы не можете редактировать свои сообщения
    Вы не можете удалять свои сообщения
    Вы не можете голосовать в опросах
    Вы не можете прикреплять файлы к сообщениям
    Вы можете скачивать файлы