Ссылка на приватное зеркало нашего сайта всего за 1$. Внимание количество ограничено!!!

2 сезон

iTunes

1 сезон

1

iTunes

iTunes

iTunes

1 сезон

RePack

30

ИГРА 18+

pack

ВАЖНО

!!Акция!!

Alien_RageХит недели

RePack

MK11
pack

Забери бонус

RePack

jed

!!Акция!!

Alien_Rage

RePack

fifa19

RePack

Assassins Creed: Odyssey

RePack

NEED FOR SPEED™ PAYBACK

4 сезон

9 сезон

Бесстыжие 9 сезон

Все сериалы

все сериалы на PB.wtf

RePack

FAR CRY 5
  

Губка Боб в 3D / The SpongeBob Movie: Sponge Out of Water (Пол Тиббит) [2015 г., мультфильм, комедия, приключения, семейный, HDRip, Дубляж "Лицензия"] pb.wtf

Губка Боб в 3D через торрент pb.wtf

Размер: 1.46 GB | Добавлен: 5 лет 4 мес. назад | Торрент скачан:535 раз
Скачать  

24-05-2015 09:55 Губка Боб в 3D Скачать торрент  

Губка Боб в 3D / The SpongeBob Movie: Sponge Out of Water
Год выпуска: 2015
Страна: США / Paramount Animation, Nickelodeon Movies, United Plankton Pictures
Жанр: мультфильм, комедия, приключения, семейный
Продолжительность: 01:32:34
Перевод: Дубляж (Лицензия)

Режиссер: Пол Тиббит

IMDB 6.40 (14 348)


В ролях: Том Кенни, Антонио Бандерас, Эрик Бауза, Тим Конуэй, Эдди Дизен, Роб Полсен, Кевин Майкл Ричардсон, Эйприл Стюарт, Кри Саммер, Билли Уэст

Описание: Всемирный любимчик со дна океана Губка Боб Квадратные Штаны должен спасти свой глубоководный мир, но для этого ему и его друзьям придется выбраться на сушу и оказаться в нашем.

Качество: HDRip
Формат: AVI
Видео кодек: DivX
Аудио кодек: AC3
Видео: 720x400 (1.80:1), 23.976 fps, DivX Codec 4.x ~1798 kbps avg, 0.26 bit/pixel
Аудио: 48 kHz, AC3 Dolby Digital, 3/2 (L,C,R,l,r) + LFE ch, ~448 kbps

Общее
Полное имя : F:\кино\Губка Боб в 3D.2014.HDRip.avi
Формат : AVI
Формат/Информация : Audio Video Interleave
Размер файла : 1,46 Гбайт
Продолжительность : 1 ч. 32 м.
Общий поток : 2256 Кбит/сек
Программа кодирования : VirtualDubMod 1.5.10.3 | www.virtualdub-fr.org || (build 2550/release)
Библиотека кодирования : VirtualDubMod build 2550/release

Видео
Идентификатор : 0
Формат : MPEG-4 Visual
Профиль формата : Advanced Simple@L5
Параметр BVOP формата : 2
Параметр QPel формата : Нет
Параметр GMC формата : Без точки перехода
Параметр матрицы формата : Default (H.263)
Идентификатор кодека : DIVX
Идентификатор кодека/Информация : Project Mayo
Идентификатор кодека/Подсказка : DivX 4
Продолжительность : 1 ч. 32 м.
Битрейт : 1799 Кбит/сек
Ширина : 720 пикселей
Высота : 400 пикселей
Соотношение сторон : 16:9
Частота кадров : 23,976 кадра/сек
Цветовое пространство : YUV
Субдискретизация насыщенности : 4:2:0
Битовая глубина : 8 бит
Тип развёртки : Прогрессивная
Метод сжатия : С потерями
Бит/(Пиксели*Кадры) : 0.260
Размер потока : 1,16 Гбайт (80%)
Библиотека кодирования : XviD 1.2.1 (UTC 2008-12-04)

Аудио
Идентификатор : 1
Формат : AC-3
Формат/Информация : Audio Coding 3
Расширение режима : CM (complete main)
Параметр Endianness формата : Big
Идентификатор кодека : 2000
Продолжительность : 1 ч. 32 м.
Вид битрейта : Постоянный
Битрейт : 448 Кбит/сек
Каналы : 6 каналов
Расположение каналов : Front: L C R, Side: L R, LFE
Частота : 48,0 КГц
Метод сжатия : С потерями
Размер потока : 297 Мбайт (20%)
Выравнивание : Разделение по промежуткам
Продолжительность промежутка : 42 мс. (1,00 видеокадр)
Время предзагрузки промежутка : 500 мс.
pb.wtf



Скачать Губка Боб в 3D через торрент http://pic1.kartinco.top/images/10/3dv6y.jpg Скачать фильм Губка Боб в 3D через торрент бесплантно в хорошем качестве Описание: Всемирный любимчик со дна океана Губка Боб Квадратные Штаны должен спасти свой глубоководный мир, но для этого ему и его друзьям ... 9.1 10 15
Торрент: Зарегистрирован [2015-06-05 17:49] · скачан: 535 раз
Статус: √ проверено
Размер: 1.46 GB
Как cкачать? Как скачать Губка Боб в 3D через торрент | qTorrent

% Раздел Тема Автор DL S | L
Зарубежные Мультфильмы (WEB-DL 720p, 1080p) [ 2.87 GB ] Губка Боб в 3D / The SpongeBob Movie: Sponge Out of Water [2015 мультфильм WEB-DL 720p - / ] Ворон Скачать
2 | 0
Зарубежные Мультфильмы (BDRip 1080p, 720p, Blu-ray, BD-Remux) [ 3.68 GB ] Губка Боб в 3D / The SpongeBob Movie - Sponge Out of Water [2015 Мультфильм BDRip 1080p HEVC ()] Мичман37 Скачать
1 | 0
Иностранные мультфильмы [ 1.46 GB ] Губка Боб в 3D / The SpongeBob Movie: Sponge Out of Water [2015 мультфильм WEB-DLRip - / ] Ворон Скачать
2 | 0
Мультфильмы (48-60 fps) [ 3.84 GB ] Губка Боб в 3D / The SpongeBob Movie: Sponge Out of Water [2015 мультфильм BDRip-AVC 60fps ] от R.G. HD-Films Tiberiumsun69 Скачать
1 | 0
Зарубежные Мультфильмы (BDRip 1080p, 720p, Blu-ray, BD-Remux) [ 9.14 GB ] Губка Боб в 3D / The SpongeBob Movie: Sponge Out of Water [2015 мультфильм BDRip 1080p] 2xDub + Original + Sub Seedtank Скачать
1 | 0
Зарубежные Мультфильмы (BDRip 1080p, 720p, Blu-ray, BD-Remux) [ 4.37 GB ] Губка Боб в 3D / The SpongeBob Movie: Sponge Out of Water [2015 Мультфильм BDRip 720p] DUB potroks Скачать
2 | 0
3D Мультфильмы [ 11.18 GB ] Губка Боб в 3D в 3Д / The SpongeBob Movie: Sponge Out of Water 3D [2015 Мультфильм BDrip 1080p] OverUnder / Вертикальная стереопара serega768 Скачать
1 | 0


Последний раз редактировалось: coc900 (2015-06-05 17:52), всего редактировалось 2 раз(а)

28-11-2019 20:33  

Отключить всю рекламу на сайте

05-06-2015 17:50 Губка Боб в 3D Скачать торрент  

Релиз обновлен!Просьба перекачать торрент файл pb.wtf



    Дорогой пользователь! Огромная просьба, поблагодарите релизера, оцените раздачу и оставьте свои комментарий, если Вы скачали Губка Боб в 3D через торрент бесплатно! Внесите свою лепту в развитие PiratBit!
    Комментировать посты могут только пользователи прошедшие не сложную регистрацию
    Показать сообщения:    

    Губка Боб в 3D через торрент
    Скачать бесплатно Губка Боб в 3D
    Губка Боб в 3D скачать торрент
    Губка Боб в 3D смотреть онлайн
    Cкачать фильм Губка Боб в 3D бесплатно
    Губка Боб в 3D скачать торрент в хорошем качестве
    Губка Боб в 3D смотреть онлайн бесплатно в хорошем качестве


    Вы не можете начинать темы
    Вы не можете отвечать на сообщения
    Вы не можете редактировать свои сообщения
    Вы не можете удалять свои сообщения
    Вы не можете голосовать в опросах
    Вы не можете прикреплять файлы к сообщениям
    Вы можете скачивать файлы