Ссылка на приватное зеркало всего за 1$. Внимание количество ограничено!!!

OK

1+1

iTunes

мы

OK

1

WEB-DLRip

Джокер

Пифагор

Ведьмак / The Witcher сериал

Лицензия

ПШазам

ОК

Оно 2

iTunes

30
pack

Вам бонус

ВАЖНО

!!Акция!!

Alien_RageХит недели

RePack

Resident Evil 21

ИГРА 18+

pack

RePack

jed

RePack

fifa19

RePack

Assassins Creed: Odyssey

RePack

NEED FOR SPEED™ PAYBACK

4 сезон

9 сезон

Бесстыжие 9 сезон

Все сериалы

все сериалы на PB.wtf

RePack

FAR CRY 5
  

Паразит: Часть 1 / Parasite: Part 1 (Такаси Ямадзаки) [2014 г., ужасы, фантастика, WEB-DLRip] DVO pb.wtf

Паразит: Часть 1 через торрент pb.wtf

Размер: 1.42 GB | Добавлен: 4 года 7 мес. назад | Торрент скачан:197 раз
Скачать  

24-05-2015 11:45 Паразит: Часть 1 Скачать торрент  

Паразит: Часть 1 / Parasite: Part 1


Год выпуска: 2014
Страна: Япония
Жанр: ужасы, фантастика
Продолжительность: 01:49:52
Перевод: Любительский двухголосый

Режиссер: Такаси Ямадзаки
Сценарий: Хитоси Ивааки, Рёта Косава, Такаси Ямадзаки

Премьера в мире: 30 октября 2014

IMDB


В ролях: Сёта Сомэтани, Эри Фукацу, Аи Хашимото, Кадзуки Китамура, Масахиро Хигасидэ, Таданобу Асано, Мико Ёки, Дзюн Кунимура, Хирофуми Арай, Пьер Таки

Описание: Земля спокойно захвачена чужеродными паразитами, которые имеют возможность обхода через ноздри или ушной канал для доступа к мозгам людей, в конечном итоге захватывая полный контроль над их телами. Синити Изуми удается частично избежать этой судьбы, потому что он носит наушники в то время, когда один из этих паразитов пытается контролировать его. Паразит, «Миги», вместо этого поселяется в правой руке Синити, и вместе они образуют симбиотические отношения, так их личности остаются полностью нетронутыми. Вместе они сражаются против других паразитов, которые пожирают людей как еду.



Качество: WEB-DLRip
Формат: AVI
Видео кодек: XVID
Аудио кодек: AC3
Видео: MPEG-4 Visual at 1652 Кбит/сек; 720 x 304 (2.368) at 23.976 fps
Аудио#1: AC-3 at 192 Кбит/сек; 2 канала, 48,0 КГц
Субтитры: Отсуствуют
скриншот   скриншот   скриншот   скриншот   скриншот  





Общее
Полное имя : Е:\Тореннт\Parasite. Part 1.avi
Формат : AVI
Формат/Информация : Audio Video Interleave
Размер файла : 1,42 Гбайт
Продолжительность : 1 ч. 49 м.
Общий поток : 1854 Кбит/сек
Программа кодирования : VirtualDubMod 1.5.10.3 | www.virtualdub-fr.org || (build 2550/release)
Библиотека кодирования : VirtualDubMod build 2550/release

Видео
Идентификатор : 0
Формат : MPEG-4 Visual
Профиль формата : Advanced Simple@L5
Параметр BVOP формата : 1
Параметр QPel формата : Нет
Параметр GMC формата : Без точки перехода
Параметр матрицы формата : Default (MPEG)
Идентификатор кодека : XVID
Идентификатор кодека/Подсказка : XviD
Продолжительность : 1 ч. 49 м.
Битрейт : 1652 Кбит/сек
Ширина : 720 пикселей
Высота : 304 пикселя
Соотношение сторон : 2,35:1
Частота кадров : 23,976 кадра/сек
Цветовое пространство : YUV
Субдискретизация насыщенности : 4:2:0
Битовая глубина : 8 бит
Тип развёртки : Прогрессивная
Метод сжатия : С потерями
Бит/(Пиксели*Кадры) : 0.315
Размер потока : 1,27 Гбайт (89%)
Библиотека кодирования : XviD 1.2.1 (UTC 2008-12-04)

Аудио
Идентификатор : 1
Формат : AC-3
Формат/Информация : Audio Coding 3
Расширение режима : CM (complete main)
Параметр Endianness формата : Big
Идентификатор кодека : 2000
Продолжительность : 1 ч. 49 м.
Вид битрейта : Постоянный
Битрейт : 192 Кбит/сек
Каналы : 2 канала
Расположение каналов : Front: L R
Частота : 48,0 КГц
Битовая глубина : 16 бит
Метод сжатия : С потерями
Размер потока : 151 Мбайт (10%)
Выравнивание : Разделение по промежуткам
Продолжительность промежутка : 42 мс. (1,00 видеокадр)
Время предзагрузки промежутка : 500 мс.
pb.wtf



Скачать Паразит: Часть 1 через торрент http://pic1.kartinco.top/images/10/o1o7m.jpg Скачать фильм Паразит: Часть 1 через торрент бесплантно в хорошем качестве Описание: Земля спокойно захвачена чужеродными паразитами, которые имеют возможность обхода через ноздри или ушной канал для доступа к ... 9.1 10 13
Info! Золотая раздача, скачанное не засчитывается.
Торрент: Зарегистрирован [2015-05-24 11:45] · скачан: 197 раз
Статус: √ проверено
Размер: 1.42 GB
Как cкачать? Как скачать Паразит: Часть 1 через торрент | qTorrent



Последний раз редактировалось: Gerbionka (2015-05-28 08:38), всего редактировалось 4 раз(а)

28-11-2019 20:33  

Отключить всю рекламу на сайте

24-05-2015 12:30 Паразит: Часть 1 Скачать торрент  

Японцы...pb.wtf



24-05-2015 12:49 Паразит: Часть 1 Скачать торрент  

Трейлер интересныйpb.wtf



24-05-2015 13:28 Паразит: Часть 1 Скачать торрент  

дунули

посмотрели трейлер

я чуть от смеха не обоссался

2е друзей от страха абасрались

сидим думаем - качать сам фильм или нет))))))))))))))pb.wtf



24-05-2015 13:43 Паразит: Часть 1 Скачать торрент  

надо бы скачать сравнить с оригинальной анимешкойpb.wtf



24-05-2015 14:51 Паразит: Часть 1 Скачать торрент  

Gerbionka, перенес Ваш релиз в правильный раздел.
Рекомендую добавить сэмпл, после чего сообщить в л/с кому-либо из модераторов Фильмов для проверки релиза (у меня права на проверку только в разделе HD).

Правила оформления раздач в разделе «Фильмов»:

Цитата:

13. Сэмпл
13.1 Добавление сэмпла в раздачу с качеством CAMRip, TS, DVDScreener, Фильмы новинки, а также где присутствует озвучивание с данных источников и / или любительский перевод - ОБЯЗАТЕЛЬНО

Как изготовить минутный видео сэмпл (Жмите)
pb.wtf



24-05-2015 18:58 Паразит: Часть 1 Скачать торрент  

Gnidik писал(а):

дунули

посмотрели трейлер

я чуть от смеха не обоссался

2е друзей от страха абасрались

сидим думаем - качать сам фильм или нет))))))))))))))

Что еще делал? Одни понты... и ни какой информацииpb.wtf



26-05-2015 13:19 Паразит: Часть 1 Скачать торрент  

2 часть когда сможем лицезреть, не любитель аниме, но фильм доставил)pb.wtf



29-05-2015 10:08 Паразит: Часть 1 Скачать торрент  

bakerman писал(а):

2 часть когда сможем лицезреть, не любитель аниме, но фильм доставил)

Дата выхода в кино: 25.04.2015pb.wtf



    Дорогой пользователь! Огромная просьба, поблагодарите релизера, оцените раздачу и оставьте свои комментарий, если Вы скачали Паразит: Часть 1 через торрент бесплатно! Внесите свою лепту в развитие PiratBit!
    Комментировать посты могут только пользователи прошедшие не сложную регистрацию
    Показать сообщения:    

    Паразит: Часть 1 через торрент
    Скачать бесплатно Паразит: Часть 1
    Паразит: Часть 1 скачать торрент
    Паразит: Часть 1 смотреть онлайн
    Cкачать фильм Паразит: Часть 1 бесплатно
    Паразит: Часть 1 скачать торрент в хорошем качестве
    Паразит: Часть 1 смотреть онлайн бесплатно в хорошем качестве


    Вы не можете начинать темы
    Вы не можете отвечать на сообщения
    Вы не можете редактировать свои сообщения
    Вы не можете удалять свои сообщения
    Вы не можете голосовать в опросах
    Вы не можете прикреплять файлы к сообщениям
    Вы можете скачивать файлы