Мега распродажа FORZA HORIZON 4 ULTIMATE+ВСЕ DLC+ОНЛАЙН всего за 499р. 349 руб. (супер цена). Внимание количество ограничено!!!

Лицензия

30

iTunes

мы

iTunes

1

1 сезон

Чернобыль

1 сезон

Ральф против интернета

MVO

Покемон. Детектив Пикачу

8 сезон

Игра престолов

iTunes

1+1

ИГРА 18+

pack

ВАЖНО

!!Акция!!

Alien_RageХит недели

RePack

Resident Evil 21
pack

RePack

Metro:Exodus

!!Акция!!

Alien_Rage

RePack

fifa19

RePack

Assassins Creed: Odyssey

RePack

NEED FOR SPEED™ PAYBACK

3 сезон

9 сезон

Бесстыжие 9 сезон

Все сериалы

все сериалы на PB.wtf

RePack

FAR CRY 5
Ребята, катастрофически не хватает 2730р. для оплаты серверов за МАЙ (всвязи с блокировками трафик упал в 3 раза), 1-2р., выручайте.
  

Вечерний квартал 95. Выпуск № 82-83. Часть 1-2. Буковель (Владимир Зеленский) [2015 г., Юмор, SATRip, Оригинал] pb.wtf

Скачать  

24-05-2015 19:42 Вечерний квартал 95. Выпуск № 82-83. Часть 1-2. Буковель Скачать торрент  

Вечерний квартал 95. Выпуск № 82-83. Часть 1-2. Буковель
Год выпуска: 2015
Страна: Украина
Жанр: Юмор
Производство: "Студия 95 квартал", Телеканал "Интер"
Продолжительность: Часть 1 - 01:32:47 . Часть 2 - 01:32:23
Перевод: Оригинал
Режиссер: Владимир Зеленский
Актёры: Владимир Зеленский, Юрий Крапов, Елена Кравец, Евгений Кошевой, Сергей Казанин, Александр Пикалов, Юрий Корявченков

Описание:

Ребята из "Вечернего квартала" продолжают устанавливать свои правила. И ни авторитет звезд шоу-бизнеса, ни статус влиятельных политиков, ни сам "президент Украины" не могут этому помешать. Здесь правила одни для всех, и "квартальщики" внимательно следят за тем, чтобы все "забавные законы" соблюдались. Злостных правонарушителей ребята из Квартала определяют по отсутствию улыбки на лице. Но в сегодня такие вряд ли найдутся, ведь у нас - юмор высшего класса от "Вечернего квартала".

Качество: SATRip
Формат: AVI
Видео кодек: XviD
Аудио кодек: MP3
Видео: MPEG-4 ,Xvid (720 x 544),1830 Кбит/с, 25.000 кадра/сек
Аудио#1: MP3, 2 ch,192 kbps (Rus) 48.0 KHz Оригинал
скриншот   скриншот   скриншот   скриншот   скриншот  

Формат : AVI
Формат/Информация : Audio Video Interleave
Размер файла : 1,32 Гбайт
Продолжительность : 1 ч. 32 м.
Общий поток : 2034 Кбит/сек
Программа кодирования : VirtualDubModRus 1.5.10.2 (build 2542/release)
Библиотека кодирования : VirtualDubMod build 2542/release

Видео
Идентификатор : 0
Формат : MPEG-4 Visual
Профиль формата : Advanced Simple@L5
Параметр BVOP формата : 1
Параметр QPel формата : Нет
Параметр GMC формата : Без точки перехода
Параметр матрицы формата : Default (MPEG)
Идентификатор кодека : XVID
Идентификатор кодека/Подсказка : XviD
Продолжительность : 1 ч. 32 м.
Битрейт : 1832 Кбит/сек
Ширина : 720 пикселей
Высота : 544 пикселя
Соотношение сторон : 4:3
Частота кадров : 25,000 кадров/сек
Цветовое пространство : YUV
Субдискретизация насыщенности : 4:2:0
Битовая глубина : 8 бит
Тип развёртки : Прогрессивная
Метод сжатия : С потерями
Бит/(Пиксели*Кадры) : 0.187
Размер потока : 1,19 Гбайт (90%)
Библиотека кодирования : XviD 1.2.1 (UTC 2008-12-04)

Аудио
Идентификатор : 1
Формат : MPEG Audio
Версия формата : Version 1
Профиль формата : Layer 3
Режим : Joint stereo
Расширение режима : MS Stereo
Идентификатор кодека : 55
Идентификатор кодека/Подсказка : MP3
Продолжительность : 1 ч. 32 м.
Вид битрейта : Постоянный
Битрейт : 192 Кбит/сек
Каналы : 2 канала
Частота : 48,0 КГц
Метод сжатия : С потерями
Размер потока : 127 Мбайт (9%)
Выравнивание : Соединение по промежуткам
Продолжительность промежутка : 40 мс. (1,00 видеокадр)
Время предзагрузки промежутка : 504 мс.
Библиотека кодирования : LAME3.99r
Настройки программы : -m j -V 4 -q 2 -lowpass 18.6 -b 192

pb.wtf



Скачать
Чтобы иметь возможность скачивать с Торрент Трекера, нужно Зарегистрироваться

Как скачивать  ·  Рейтинг и ограничения


>> Регистрируемся здесь <<






Отзывы и комментарии о схеме читаем и пишем здесь: ---> Отзывы и комментарии о схеме

Новые благодарочки в телеграм довольных пользователей:
скриншот   скриншот   скриншот   скриншот   скриншот
    Дорогой пользователь! Огромная просьба, поблагодарите релизера, оцените раздачу и оставьте свои комментарий, если Вы скачали Вечерний квартал 95. Выпуск № 82-83. Часть 1-2. Буковель через торрент бесплатно! Внесите свою лепту в развитие PiratBit!
    Комментировать посты могут только пользователи прошедшие не сложную регистрацию
    Показать сообщения:    

    Вечерний квартал 95. Выпуск № 82-83. Часть 1-2. Буковель через торрент
    Скачать бесплатно Вечерний квартал 95. Выпуск № 82-83. Часть 1-2. Буковель
    Вечерний квартал 95. Выпуск № 82-83. Часть 1-2. Буковель скачать торрент
    Вечерний квартал 95. Выпуск № 82-83. Часть 1-2. Буковель смотреть онлайн
    Cкачать фильм Вечерний квартал 95. Выпуск № 82-83. Часть 1-2. Буковель бесплатно
    Вечерний квартал 95. Выпуск № 82-83. Часть 1-2. Буковель скачать торрент в хорошем качестве
    Вечерний квартал 95. Выпуск № 82-83. Часть 1-2. Буковель смотреть онлайн бесплатно в хорошем качестве


    Вы не можете начинать темы
    Вы не можете отвечать на сообщения
    Вы не можете редактировать свои сообщения
    Вы не можете удалять свои сообщения
    Вы не можете голосовать в опросах
    Вы не можете прикреплять файлы к сообщениям
    Вы не можете скачивать файлы