Ссылка на приватное зеркало нашего сайта всего за 1$. Внимание количество ограничено!!!

2 сезон

iTunes

1 сезон

1

iTunes

iTunes

iTunes

1 сезон

RePack

30

ИГРА 18+

pack

ВАЖНО

!!Акция!!

Alien_RageХит недели

RePack

MK11
pack

Забери бонус

RePack

jed

!!Акция!!

Alien_Rage

RePack

fifa19

RePack

Assassins Creed: Odyssey

RePack

NEED FOR SPEED™ PAYBACK

4 сезон

9 сезон

Бесстыжие 9 сезон

Все сериалы

все сериалы на PB.wtf

RePack

FAR CRY 5
  

Эффи / Effie Gray (Ричард Лэкстон ) [2014, драма, WEB-DLRip, Любительский (одноголосый)] pb.wtf

Эффи через торрент pb.wtf

Размер: 2.18 GB | Добавлен: 5 лет 5 мес. назад | Торрент скачан:35 раз
Скачать  

25-05-2015 02:52 Эффи Скачать торрент  

Эффи / Effie Gray

Год выпуска: 2014
Страна: Великобритания
Жанр: драма
Продолжительность: 01:48:25
Перевод: Любительский (одноголосый)
Режиссер: Ричард Лэкстон
В ролях: Дакота Фаннинг (Euphemia «Effie» Gray), Том Стёрридж (Everett Millais), Эмма Томпсон (Lady Eastlake), Джули Уолтерс (Margaret Cox Ruskin), Клаудия Кардинале (Viscountess), Робби Колтрейн (Doctor), Дэвид Суше (Mr. Ruskin), Дерек Джекоби (Travers Twiss), Рассел Тови (George), Джеймс Фокс (Sir Charles Eastlake), Грег Уайз (John Ruskin), Линда Бэссет (Anna)
Описание:
История Эффи - 18-летней девушки, вышедшей замуж за критика, архитектора и поэта Джона Рёскина.
Рейтинг:

MPAA: PG-13 - Детям до 13 лет просмотр не желателен
Качество: WEB-DLRip
Формат: AVI
Видео кодек: XviD
Аудио кодек: AC3
Видео: XviD, 720x304 (2.35:1), 2088 kbps, 24 fps, 0,398 bpp
Аудио №1: AC3 / 5.1 / 48 kHz / 384 kbps / 16 bit Русский
Аудио №2: AC3 / 5.1 / 48 kHz / 384 kbps / 16 bit Английский

Код:

General
Complete name                            : C:\Users\Admin\Downloads\Effie Gray.2014.avi
Format                                   : AVI
Format/Info                              : Audio Video Interleave
Format profile                           : OpenDML
File size                                : 2.18 GiB
Duration                                 : 1h 48mn
Overall bit rate                         : 2 874 Kbps
Writing application                      : VirtualDubMod 1.6.0.0 SURROUND (build 2560/release)
Writing library                          : VirtualDubMod build 2560/release

Video
ID                                       : 0
Format                                   : MPEG-4 Visual
Format profile                           : Advanced Simple@L5
Format settings, BVOP                    : 1
Format settings, QPel                    : No
Format settings, GMC                     : No warppoints
Format settings, Matrix                  : Custom
Codec ID                                 : XVID
Codec ID/Hint                            : XviD
Duration                                 : 1h 48mn
Bit rate                                 : 2 088 Kbps
Width                                    : 720 pixels
Height                                   : 304 pixels
Display aspect ratio                     : 2.35:1
Frame rate                               : 24.000 fps
Color space                              : YUV
Chroma subsampling                       : 4:2:0
Bit depth                                : 8 bits
Scan type                                : Progressive
Compression mode                         : Lossy
Bits/(Pixel*Frame)                       : 0.398
Stream size                              : 1.58 GiB (73%)
Writing library                          : XviD 1.2.1 (UTC 2008-12-04)

Audio #1
ID                                       : 1
Format                                   : AC-3
Format/Info                              : Audio Coding 3
Mode extension                           : CM (complete main)
Codec ID                                 : 2000
Duration                                 : 1h 48mn
Bit rate mode                            : Constant
Bit rate                                 : 384 Kbps
Channel(s)                               : 6 channels
Channel positions                        : Front: L C R, Side: L R, LFE
Sampling rate                            : 48.0 KHz
Bit depth                                : 16 bits
Compression mode                         : Lossy
Stream size                              : 298 MiB (13%)
Alignment                                : Split accross interleaves
Interleave, duration                     : 42 ms (1.00 video frame)
Interleave, preload duration             : 500 ms

Audio #2
ID                                       : 2
Format                                   : AC-3
Format/Info                              : Audio Coding 3
Mode extension                           : CM (complete main)
Codec ID                                 : 2000
Duration                                 : 1h 48mn
Bit rate mode                            : Constant
Bit rate                                 : 384 Kbps
Channel(s)                               : 6 channels
Channel positions                        : Front: L C R, Side: L R, LFE
Sampling rate                            : 48.0 KHz
Bit depth                                : 16 bits
Compression mode                         : Lossy
Stream size                              : 298 MiB (13%)
Alignment                                : Split accross interleaves
Interleave, duration                     : 42 ms (1.00 video frame)
Interleave, preload duration             : 500 ms

pb.wtf



Скачать Эффи через торрент http://i72.fastpic.ru/big/2015/0525/f7/566d95303e2b40177b49fdb775b4a2f7.jpg Скачать фильм Эффи через торрент бесплантно в хорошем качестве Описание: История Эффи - 18-летней девушки, вышедшей замуж за критика, архитектора и поэта Джона Рёскина.Рейтинг: MPAA: PG-13 - Детям до 13 ... 10 10 3
Info! Золотая раздача, скачанное не засчитывается.
Торрент: Зарегистрирован [2015-05-25 02:52] · скачан: 35 раз
Статус: √ проверено
Размер: 2.18 GB
Как cкачать? Как скачать Эффи через торрент | qTorrent



Последний раз редактировалось: ninla (2015-06-14 23:46), всего редактировалось 1 раз

28-11-2019 20:33  

Отключить всю рекламу на сайте

25-05-2015 09:59 Эффи Скачать торрент  

ninla писал(а):

Аудио №1: AC3 / 5.1 / 48 kHz / 384 kbps / 16 bit
Аудио №2: AC3 / 5.1 / 48 kHz / 384 kbps / 16 bit

Дорожки следует подписывать рус/англ.
Также если известен автор перевода указывайте.
pb.wtf



    Дорогой пользователь! Огромная просьба, поблагодарите релизера, оцените раздачу и оставьте свои комментарий, если Вы скачали Эффи через торрент бесплатно! Внесите свою лепту в развитие PiratBit!
    Комментировать посты могут только пользователи прошедшие не сложную регистрацию
    Показать сообщения:    

    Эффи через торрент
    Скачать бесплатно Эффи
    Эффи скачать торрент
    Эффи смотреть онлайн
    Cкачать фильм Эффи бесплатно
    Эффи скачать торрент в хорошем качестве
    Эффи смотреть онлайн бесплатно в хорошем качестве


    Вы не можете начинать темы
    Вы не можете отвечать на сообщения
    Вы не можете редактировать свои сообщения
    Вы не можете удалять свои сообщения
    Вы не можете голосовать в опросах
    Вы не можете прикреплять файлы к сообщениям
    Вы можете скачивать файлы