Всегда рабочее зеркало без VPN и Proxy просто перед .vidak.icu напиши любое слово или цифру, Пример http://tuxy.vidak.icu

Лицензия

MVO

1 сезон

1

1 сезон

iTunes

1 сезон

13

1 сезон

Deluxe

pack

Рекомендуем

Repack

30

ВАЖНО

RePack

MK11

RePack

jed

RePack

fifa19

RePack

RDR2

RePack

NEED FOR SPEED™ PAYBACK

Кинопоиск HD

6 сезон

 Острые козырьки 6 сезон

Все сериалы

все сериалы на PB.wtf

RePack

FAR CRY 5
  
Magnet ссылка

Учебные фильмы о рыбалке от братьев Щербаковых: Чертова дюжина с братьями Щербаковыми (Владимир Щербаков) [2013 - 2014, Документальный, рыбалка, WEBRip] pb.wtf

Учебные фильмы о рыбалке от братьев Щербаковых: Чертова дюжина с братьями Щербаковыми через торрент pb.wtf

Размер: 6.29 GB | Добавлен: 7 лет 2 мес. назад | Торрент скачан:145 раз
Смотреть онлайн Учебные фильмы о рыбалке от братьев Щербаковых: Чертова дюжина с братьями Щербаковыми | Скачать    Ребята, помогите собрать деньги на оплату серверов!!!

25-05-2015 08:28 Учебные фильмы о рыбалке от братьев Щербаковых: Чертова дюжина с братьями Щербаковыми Скачать торрент  


Учебные фильмы о рыбалке от братьев Щербаковых: Чертова дюжина с братьями Щербаковыми



Год выпуска: 2013 - 2014
Страны: Россия
Жанры: Документальный, рыбалка
Продолжительность: 20 х ~ 00:26:00
Перевод: Оригинал

Режиссер: Владимир Щербаков
В ролях:
Владимир Щербаков, Дмитрий Щербаков
Описание:
Эксклюзивная премьера от телеканала «Охотник и рыболов HD» - проект «Чертова дюжина». Владимир и Дмитрий Щербаковы известные профессионалы в рыболовном мире. Программа «Чертова дюжина» – это 13 вопросов-ответов по интересной рыболовной теме. Формируются лучшие вопросы по каждой конкретной теме, и ведущий чуть менее, чем за 2 минуты, отвечает на каждый вопрос. В основу программы положен принцип: «посмотрел – и подготовленным идешь на рыбалку». Ответы на вопросы будут подтверждаться многочисленными макро и подводными съемками, а также графическими схемами.
Качество: WEBRip
Формат: AVI
Видео кодек: XviD
Аудио кодек: MP3
Видео: 720x400 (16:9), 25.000 fps, XviD, 1 526 Kbps
Аудио: MP3, 128 Kbps, 44.1 KHz, 2 ch

1.01 01.Аттрактанты для хищников
02.Цикады
03.Раттлины
04.Спиннер-бейты
05.Съедобная резина
06.Колебалки-незацепляйки
07.Офсетные крючки
08.Флуорокарбоновые лески
09.Рыболовная одежда
10.Поролоновые рыбки
11.Заднеогруженные вертушки
12.Пассивные силиконовые приманки
13.Поверхностные приманки
14.Воблеры минноу
15.Балансиры
16.Флешер на зимней рыбалке
17.Блесны для ловли со дна
18.Зимние удильники для блеснения
19.Зимняя рыболовная одежда
20.Ледобуры

General
Complete name : 01.Аттрактанты для хищников.avi
Format : AVI
Format/Info : Audio Video Interleave
File size : 322 MiB
Duration : 26mn 0s
Overall bit rate : 1 731 Kbps
Writing library : VirtualDub build 32842/release

Video
ID : 0
Format : MPEG-4 Visual
Format profile : Advanced [email protected]
Format settings, BVOP : 2
Format settings, QPel : No
Format settings, GMC : No warppoints
Format settings, Matrix : Default (H.263)
Muxing mode : Packed bitstream
Codec ID : XVID
Codec ID/Hint : XviD
Duration : 26mn 0s
Bit rate : 1 526 Kbps
Width : 720 pixels
Height : 400 pixels
Display aspect ratio : 16:9
Frame rate : 25.000 fps
Color space : YUV
Chroma subsampling : 4:2:0
Bit depth : 8 bits
Scan type : Progressive
Compression mode : Lossy
Bits/(Pixel*Frame) : 0.212
Stream size : 284 MiB (88%)
Writing library : XviD 64

Audio
ID : 1
Format : MPEG Audio
Format version : Version 1
Format profile : Layer 3
Mode : Joint stereo
Mode extension : MS Stereo
Codec ID : 55
Codec ID/Hint : MP3
Duration : 26mn 0s
Bit rate mode : Constant
Bit rate : 128 Kbps
Channel(s) : 2 channels
Sampling rate : 44.1 KHz
Compression mode : Lossy
Stream size : 23.8 MiB (7%)
Alignment : Split accross interleaves
pb.wtf



Скачать Учебные фильмы о рыбалке от братьев Щербаковых: Чертова дюжина с братьями Щербаковыми через торрент http://i69.fastpic.ru/big/2015/0525/d0/65364073392a71ec63ac80d44aa5ccd0.jpg Скачать, смотреть онлайн Учебные фильмы о рыбалке от братьев Щербаковых: Чертова дюжина с братьями Щербаковыми бесплантно в хорошем качестве Описание: Эксклюзивная премьера от телеканала «Охотник и рыболов HD» - проект «Чертова дюжина». Владимир и Дмитрий Щербаковы известные ... 10 10 4
Info! Серебряная раздача, засчитывается только 50% скачанного.
Торрент: Зарегистрирован [2015-05-25 08:28] · скачан: 145 раз
Статус: √ проверено
Размер: 6.29 GB
Как cкачать? Как скачать Учебные фильмы о рыбалке от братьев Щербаковых: Чертова дюжина с братьями Щербаковыми через торрент | UTorrent

28-11-2019 20:33  

Отключить вcю реклaмy на сайте

    Дорогой пользователь! Огромная просьба, поблагодарите релизера, оцените раздачу и оставьте свои комментарий, если Вы скачали Учебные фильмы о рыбалке от братьев Щербаковых: Чертова дюжина с братьями Щербаковыми через торрент бесплатно!
    Комментировать посты могут только пользователи прошедшие не сложную регистрацию
    Показать сообщения:    

    Учебные фильмы о рыбалке от братьев Щербаковых: Чертова дюжина с братьями Щербаковыми через торрент
    Скачать бесплатно Учебные фильмы о рыбалке от братьев Щербаковых: Чертова дюжина с братьями Щербаковыми
    Учебные фильмы о рыбалке от братьев Щербаковых: Чертова дюжина с братьями Щербаковыми скачать торрент
    Учебные фильмы о рыбалке от братьев Щербаковых: Чертова дюжина с братьями Щербаковыми смотреть онлайн
    Cкачать фильм Учебные фильмы о рыбалке от братьев Щербаковых: Чертова дюжина с братьями Щербаковыми бесплатно
    Учебные фильмы о рыбалке от братьев Щербаковых: Чертова дюжина с братьями Щербаковыми скачать торрент в хорошем качестве
    Учебные фильмы о рыбалке от братьев Щербаковых: Чертова дюжина с братьями Щербаковыми смотреть онлайн бесплатно в хорошем качестве


    Вы не можете начинать темы
    Вы не можете отвечать на сообщения
    Вы не можете редактировать свои сообщения
    Вы не можете удалять свои сообщения
    Вы не можете голосовать в опросах
    Вы не можете прикреплять файлы к сообщениям
    Вы можете скачивать файлы