Ссылка на приватное зеркало нашего сайта всего за 1$. Внимание количество ограничено!!!

2 сезон

iTunes

1 сезон

1

iTunes

iTunes

iTunes

1 сезон

RePack

30

ИГРА 18+

pack

ВАЖНО

!!Акция!!

Alien_RageХит недели

RePack

MK11
pack

Забери бонус

RePack

jed

!!Акция!!

Alien_Rage

RePack

fifa19

RePack

Assassins Creed: Odyssey

RePack

NEED FOR SPEED™ PAYBACK

4 сезон

9 сезон

Бесстыжие 9 сезон

Все сериалы

все сериалы на PB.wtf

RePack

FAR CRY 5
  

Магия лунного света / Magic in the Moonlight (Вуди Аллен / Woody Allen) [2014, мелодрама, комедия, BDRip 720p] DUB, Original, SUB pb.wtf

Магия лунного света через торрент pb.wtf

Размер: 7.09 GB | Добавлен: 5 лет 5 мес. назад | Торрент скачан:86 раз
Скачать  

25-05-2015 13:58 Магия лунного света Скачать торрент  


Магия лунного света
Magic in the Moonlight



Год выпуска: 2014
Страны: США , Великобритания
Жанры: мелодрама, комедия
Продолжительность: 01:37:37
Перевод: Профессиональный (дублированный) (BD RUS)

Режиссер: Вуди Аллен / Woody Allen
Сценарий: Вуди Аллен / Woody Allen
Субтитры: Russian (UTF-8), English (UTF-8)
В ролях:
Колин Фёрт / Colin Firth (Stanley), Эмма Стоун / Emma Stone (Sophie), Катрин МакКормак / Catherine McCormack (Olivia), Хамиш Линклэйтер / Hamish Linklater (Brice Catledge), Марша Гей Харден / Marcia Gay Harden (Mrs. Baker)

Описание:
1928 год. Выдающийся иллюзионист по просьбе своего друга и коллеги приезжает на Лазурный Берег разоблачить молодую привлекательную шарлатанку, якобы умеющую вызывать духов умерших. Она очаровала богатого наследника и его мать-вдову, а это не устраивает других членов семьи.
Премьера (мир): 25 июля 2014
Премьера (РФ): 25 сентября 2014
Релиз на DVD: 19 марта 2015, «CD Land»

Качество: BDRip 720р
Формат: MKV
Видео кодек: AVC
Аудио кодек: AC3 / DTS
Видео: 1280x536 (2.40:1), 23.976 fps, AVC, 6 528 Kbps
Аудио #1: AC3, 640 Kbps, 48.0 KHz, 6 ch RUS Dub (BD RUS)
Аудио #2: DTS, 1 510 Kbps, 48.0 KHz, 6 ch RUS Dub (BD RUS)
Аудио #3: DTS, 1 510 Kbps, 48.0 KHz, 6 ch English
☭ Стэнли (Колин Фёрт) говорит в фильме, что его любимое музыкальное произведение 7-ая симфония Людвига ван Бетховена. Под эту композицию Колин Фёрт произносит речь в конце фильма «Король говорит!» (2010).
Формат : Matroska
Версия формата : Version 2
Размер файла : 7,09 Гбайт
Продолжительность : 1 ч. 37 м.
Общий поток : 10,4 Мбит/сек
Дата кодирования : UTC 2015-05-25 09:28:52
Программа кодирования : mkvmerge v7.6.0 ('Garden of Dreams') 32bit built on Feb 11 2015 00:18:47
Библиотека кодирования : libebml v1.3.1 + libmatroska v1.4.2

Видео
Идентификатор : 1
Формат : AVC
Формат/Информация : Advanced Video Codec
Профиль формата : High@L4.1
Параметр CABAC формата : Да
Параметр ReFrames формата : 12 кадров
Идентификатор кодека : V_MPEG4/ISO/AVC
Продолжительность : 1 ч. 37 м.
Битрейт : 6529 Кбит/сек
Ширина : 1280 пикселей
Высота : 536 пикселей
Соотношение сторон : 2,40:1
Режим частоты кадров : Постоянный
Частота кадров : 23,976 кадра/сек
Цветовое пространство : YUV
Субдискретизация насыщенности : 4:2:0
Битовая глубина : 8 бит
Тип развёртки : Прогрессивная
Бит/(Пиксели*Кадры) : 0.397
Размер потока : 4,45 Гбайт (63%)
Библиотека кодирования : x264 core 142 r2431+42 c69a006 tMod [8-bit@4:2:0 X86_64]
Настройки программы : cabac=1 / ref=12 / deblock=1:-3:-3 / analyse=0x3:0x113 / me=umh / subme=10 / psy=1 / fade_compensate=0.00 / psy_rd=1.00:0.05 / mixed_ref=1 / me_range=32 / chroma_me=1 / trellis=2 / 8x8dct=1 / cqm=0 / deadzone=21,11 / fast_pskip=0 / chroma_qp_offset=-3 / threads=36 / lookahead_threads=4 / sliced_threads=0 / nr=0 / decimate=0 / interlaced=0 / bluray_compat=0 / constrained_intra=0 / fgo=0 / bframes=9 / b_pyramid=2 / b_adapt=2 / b_bias=0 / direct=3 / weightb=1 / open_gop=0 / weightp=2 / keyint=240 / keyint_min=24 / scenecut=40 / intra_refresh=0 / rc_lookahead=60 / rc=crf / mbtree=0 / crf=15.7000 / qcomp=0.70 / qpmin=0:0:0 / qpmax=69:69:69 / qpstep=4 / vbv_maxrate=40000 / vbv_bufsize=30000 / crf_max=0.0 / nal_hrd=none / filler=0 / ip_ratio=1.18 / pb_ratio=1.20 / aq=4:0.85 / aq-sensitivity=10.00 / aq-factor=1.00:1.00:1.00 / aq2=0 / aq3=0
Язык : English
Default : Да
Forced : Нет

Аудио #1
Идентификатор : 2
Формат : AC-3
Формат/Информация : Audio Coding 3
Расширение режима : CM (complete main)
Параметр Endianness формата : Big
Идентификатор кодека : A_AC3
Продолжительность : 1 ч. 37 м.
Вид битрейта : Постоянный
Битрейт : 640 Кбит/сек
Каналы : 6 каналов
Расположение каналов : Front: L C R, Side: L R, LFE
Частота : 48,0 КГц
Битовая глубина : 16 бит
Метод сжатия : С потерями
Размер потока : 447 Мбайт (6%)
Заголовок : Дублированный (BD RUS)
Язык : Russian
Default : Да
Forced : Нет

Аудио #2
Идентификатор : 3
Формат : DTS
Формат/Информация : Digital Theater Systems
Режим : 16
Параметр Endianness формата : Big
Идентификатор кодека : A_DTS
Продолжительность : 1 ч. 37 м.
Вид битрейта : Постоянный
Битрейт : 1509 Кбит/сек
Каналы : 6 каналов
Расположение каналов : Front: L C R, Side: L R, LFE
Частота : 48,0 КГц
Битовая глубина : 16 бит
Метод сжатия : С потерями
Размер потока : 1,03 Гбайт (15%)
Заголовок : Дублированный (BD RUS)
Язык : Russian
Default : Нет
Forced : Нет

Аудио #3
Идентификатор : 4
Формат : DTS
Формат/Информация : Digital Theater Systems
Режим : 16
Параметр Endianness формата : Big
Идентификатор кодека : A_DTS
Продолжительность : 1 ч. 37 м.
Вид битрейта : Постоянный
Битрейт : 1509 Кбит/сек
Каналы : 6 каналов
Расположение каналов : Front: L C R, Side: L R, LFE
Частота : 48,0 КГц
Битовая глубина : 24 бит
Метод сжатия : С потерями
Размер потока : 1,03 Гбайт (15%)
Язык : English
Default : Нет
Forced : Нет

Текст #1
Идентификатор : 5
Формат : UTF-8
Идентификатор кодека : S_TEXT/UTF8
Идентификатор кодека/Информация : UTF-8 Plain Text
Язык : Russian
Default : Нет
Forced : Нет

Текст #2
Идентификатор : 6
Формат : UTF-8
Идентификатор кодека : S_TEXT/UTF8
Идентификатор кодека/Информация : UTF-8 Plain Text
Язык : English
Default : Нет
Forced : Нет

Меню
00:00:00.000 : en:00:00:00.000
00:09:37.494 : en:00:09:37.494
00:16:11.596 : en:00:16:11.596
00:20:17.633 : en:00:20:17.633
00:26:40.724 : en:00:26:40.724
00:32:47.966 : en:00:32:47.966
00:37:48.600 : en:00:37:48.600
00:43:56.259 : en:00:43:56.259
00:49:36.557 : en:00:49:36.557
00:53:57.192 : en:00:53:57.192
00:59:15.385 : en:00:59:15.385
01:05:28.675 : en:01:05:28.675
01:10:43.030 : en:01:10:43.030
01:18:20.195 : en:01:18:20.195
01:24:43.996 : en:01:24:43.996
01:29:39.666 : en:01:29:39.666
pb.wtf



Скачать Магия лунного света через торрент http://i71.fastpic.ru/big/2015/0525/cd/7efeb40caa4f72f66b4ba3526818a8cd.jpg Скачать фильм Магия лунного света через торрент бесплантно в хорошем качестве Описание: 1928 год. Выдающийся иллюзионист по просьбе своего друга и коллеги приезжает на Лазурный Берег разоблачить молодую ... 10 10 3
Info! Золотая раздача, скачанное не засчитывается.
Торрент: Зарегистрирован [2015-05-25 13:58] · скачан: 86 раз
Статус: √ проверено
Размер: 7.09 GB
Как cкачать? Как скачать Магия лунного света через торрент | qTorrent

% Раздел Тема Автор DL S | L
Фильмы [HD 720p, 1080p] (Хороший звук DUB, MVO) [ 4.37 GB ] Магия лунного света / Magic in the Moonlight [2014 BDRip 720p от _denis_100 / NNNB] DUB AVO + Original + Sub _denis_100 Скачать
1 | 0

28-11-2019 20:33  

Отключить всю рекламу на сайте

26-05-2015 06:33 Магия лунного света Скачать торрент  

Отличное кино. Впрочем, у Аллена других не бывает)pb.wtf



    Дорогой пользователь! Огромная просьба, поблагодарите релизера, оцените раздачу и оставьте свои комментарий, если Вы скачали Магия лунного света через торрент бесплатно! Внесите свою лепту в развитие PiratBit!
    Комментировать посты могут только пользователи прошедшие не сложную регистрацию
    Показать сообщения:    

    Магия лунного света через торрент
    Скачать бесплатно Магия лунного света
    Магия лунного света скачать торрент
    Магия лунного света смотреть онлайн
    Cкачать фильм Магия лунного света бесплатно
    Магия лунного света скачать торрент в хорошем качестве
    Магия лунного света смотреть онлайн бесплатно в хорошем качестве


    Вы не можете начинать темы
    Вы не можете отвечать на сообщения
    Вы не можете редактировать свои сообщения
    Вы не можете удалять свои сообщения
    Вы не можете голосовать в опросах
    Вы не можете прикреплять файлы к сообщениям
    Вы можете скачивать файлы