Ссылка на приватное зеркало нашего сайта всего за 1$. Внимание количество ограничено!!!

2 сезон

iTunes

1 сезон

1

2 сезон

2 сезон

iTunes

1 сезон

RePack

30

Новинка

ВАЖНО

ИГРА 18+

pack

RePack

MK11
pack

Забери бонус

RePack

jed

!!Акция!!

Alien_Rage

RePack

fifa19

RePack

Assassins Creed: Odyssey

RePack

NEED FOR SPEED™ PAYBACK

4 сезон

9 сезон

Бесстыжие 9 сезон

Все сериалы

все сериалы на PB.wtf

RePack

FAR CRY 5
  

Батл Крик / Battle Creek / Сезон: 1 / Серии 1-13 из 13 (Эндрю Бернштейн / Andrew Bernstein, Крейг Зиск / Craig Zisk, Дэниэл Эттиэс / Daniel Attias) [2015, США, драма, комедия, криминал, WEB-DLRip, MVO] [BaibaKo] pb.wtf

Батл Крик через торрент pb.wtf

Размер: 7.57 GB | Добавлен: 5 лет 5 мес. назад | Торрент скачан:165 раз
Скачать  

26-05-2015 10:39 Батл Крик Скачать торрент  

Батл Крик / Battle Creek


  • Год выпуска: 2015
  • Страна: США
  • Жанр: драма, комедия, криминал
  • Продолжительность: 00:43:44 (Серия)
  • Перевод: Профессиональный многоголосый закадровый) [BaibaKo]

  • Режиссер: Эндрю Бернштейн / Andrew Bernstein, Крейг Зиск / Craig Zisk, Дэниэл Эттиэс / Daniel Attias
  • В ролях:

    Джош Дюамель (Milt Chamberlain), Дин Уинтерс (Russ Agnew), Обри Доллар (Holly Dale), Грейпвайн (Aaron Funkhauser), Кэл Пенн (Fontanelle White), Джанет МакТир (Commander Kim Guziewicz), Лиза Лапира (Erin Jacocks), Дэймон Херриман (Detective Niblet), Мередит Итон (Meredith Oberling), Джесси Фудрей (Connie the Clerk), Дэвид Уоршофски (Agent Bromberg), Дастин Ибарра (Teddy the Snitch)

  • Описание:
    Два детектива с разными взглядами на мир объединяются, чтобы очистить улицы Батл Крика, используя цинизм, коварство и обман...
  • Рейтинг:



  • Качество: WEB-DLRip
  • Формат: :AVI
  • Видео кодек: XviD
  • Аудио кодек: MP3
  • Видео: 720x400 (16:9), 1504 kbps, 23,976 fps, 0,218 bpp
  • Аудио №1: Русский 2.0 / 48 kHz / 192 kbps
  • Аудио №2: Английский 2.0 / 48 kHz / 192 kbps
  • Релиз от: GEKADOL

    Код:

    General
    Complete name                            : D:\Фильмы\Battle.Creek.s01.BaibaKo\Battle.Creek.s01e13.WEB-DLRip.XviD.Rus.Eng.BaibaKo.tv.avi
    Format                                   : AVI
    Format/Info                              : Audio Video Interleave
    File size                                : 595 MiB
    Duration                                 : 43mn 44s
    Overall bit rate                         : 1 902 Kbps
    Writing application                      : VirtualDubMod 1.5.10.2 (build 2540/release)
    Writing library                          : VirtualDubMod build 2540/release

    Video
    ID                                       : 0
    Format                                   : MPEG-4 Visual
    Format profile                           : Advanced Simple@L5
    Format settings, BVOP                    : 2
    Format settings, QPel                    : No
    Format settings, GMC                     : No warppoints
    Format settings, Matrix                  : Default (H.263)
    Codec ID                                 : XVID
    Codec ID/Hint                            : XviD
    Duration                                 : 43mn 44s
    Bit rate                                 : 1 504 Kbps
    Width                                    : 720 pixels
    Height                                   : 400 pixels
    Display aspect ratio                     : 16:9
    Frame rate                               : 23.976 fps
    Color space                              : YUV
    Chroma subsampling                       : 4:2:0
    Bit depth                                : 8 bits
    Scan type                                : Progressive
    Compression mode                         : Lossy
    Bits/(Pixel*Frame)                       : 0.218
    Stream size                              : 471 MiB (79%)
    Writing library                          : XviD 1.2.1 (UTC 2008-12-04)

    Audio #1
    ID                                       : 1
    Format                                   : MPEG Audio
    Format version                           : Version 1
    Format profile                           : Layer 3
    Mode                                     : Joint stereo
    Mode extension                           : MS Stereo
    Codec ID                                 : 55
    Codec ID/Hint                            : MP3
    Duration                                 : 43mn 44s
    Bit rate mode                            : Constant
    Bit rate                                 : 192 Kbps
    Channel(s)                               : 2 channels
    Sampling rate                            : 48.0 KHz
    Compression mode                         : Lossy
    Stream size                              : 60.1 MiB (10%)
    Alignment                                : Aligned on interleaves
    Interleave, duration                     : 42 ms (1.00 video frame)
    Interleave, preload duration             : 504 ms

    Audio #2
    ID                                       : 2
    Format                                   : MPEG Audio
    Format version                           : Version 1
    Format profile                           : Layer 3
    Mode                                     : Joint stereo
    Mode extension                           : MS Stereo
    Codec ID                                 : 55
    Codec ID/Hint                            : MP3
    Duration                                 : 43mn 44s
    Bit rate mode                            : Constant
    Bit rate                                 : 192 Kbps
    Channel(s)                               : 2 channels
    Sampling rate                            : 48.0 KHz
    Compression mode                         : Lossy
    Stream size                              : 60.1 MiB (10%)
    Alignment                                : Aligned on interleaves
    Interleave, duration                     : 42 ms (1.00 video frame)
    Interleave, preload duration             : 504 ms




    Скриншоты:



    pb.wtf



  • Скачать Батл Крик через торрент http://i5.imageban.ru/out/2015/05/26/ae78f8749a7e1af98bac92b5802d5176.jpg Скачать фильм Батл Крик через торрент бесплантно в хорошем качестве Описание: Два детектива с разными взглядами на мир объединяются, чтобы очистить улицы Батл Крика, используя цинизм, коварство и ... 10 10 3
    Info! Золотая раздача, скачанное не засчитывается.
    Торрент: Зарегистрирован [2015-05-26 10:39] · скачан: 165 раз
    Статус: √ проверено
    Размер: 7.57 GB
    Как cкачать? Как скачать Батл Крик через торрент | qTorrent

    28-11-2019 20:33  

    Отключить всю рекламу на сайте

    26-05-2015 13:32 Батл Крик Скачать торрент  

    Очень жаль что закрыли. :smok:
    Спасибо за релиз!pb.wtf



    27-05-2015 02:06 Батл Крик Скачать торрент  

    NDDLQ писал(а):

    Очень жаль что закрыли. :smok:
    Спасибо за релиз!

    pb.wtf



      Дорогой пользователь! Огромная просьба, поблагодарите релизера, оцените раздачу и оставьте свои комментарий, если Вы скачали Батл Крик через торрент бесплатно! Внесите свою лепту в развитие PiratBit!
      Комментировать посты могут только пользователи прошедшие не сложную регистрацию
      Показать сообщения:    

      Батл Крик через торрент
      Скачать бесплатно Батл Крик
      Батл Крик скачать торрент
      Батл Крик смотреть онлайн
      Cкачать фильм Батл Крик бесплатно
      Батл Крик скачать торрент в хорошем качестве
      Батл Крик смотреть онлайн бесплатно в хорошем качестве


      Вы не можете начинать темы
      Вы не можете отвечать на сообщения
      Вы не можете редактировать свои сообщения
      Вы не можете удалять свои сообщения
      Вы не можете голосовать в опросах
      Вы не можете прикреплять файлы к сообщениям
      Вы можете скачивать файлы