Ссылка на приватное зеркало нашего сайта всего за 1$. Внимание количество ограничено!!!

2 сезон

iTunes

1 сезон

1

2 сезон

2 сезон

iTunes

1 сезон

RePack

30

Ultimate

ВАЖНО

ИГРА 18+

pack

RePack

MK11
pack

Забери бонус

RePack

jed

!!Акция!!

Alien_Rage

RePack

fifa19

RePack

Assassins Creed: Odyssey

RePack

NEED FOR SPEED™ PAYBACK

4 сезон

9 сезон

Бесстыжие 9 сезон

Все сериалы

все сериалы на PB.wtf

RePack

FAR CRY 5
  

Мыслить как преступник / Criminal Minds / Сезон: 10 / Серии 1-23 из 23 / (Фил Абрахам, Терри МакДонаф, Роб Спера) [2014-2015 г., триллер, драма, криминал, детектив, WEB-DLRip] MVO (Fox) pb.wtf

Мыслить как преступник через торрент pb.wtf

Размер: 11.22 GB | Добавлен: 5 лет 6 мес. назад | Торрент скачан:131 раз
Скачать  

27-05-2015 09:49 Мыслить как преступник Скачать торрент  

Мыслить как преступник / Criminal Minds
«Чтобы поймать преступника , вы должны думать, как он»


  • Год выпуска: 2014-2015
  • Страна: США, Канада
  • Жанр: триллер, драма, криминал, детектив
  • Продолжительность: 00:41:25 (Серия)
  • Перевод: Профессиональный многоголосый закадровый) [Fox]

  • В ролях:

    Мэнди Пэтинкин (Jason Gideon), Томас Гибсон (Aaron Hotchner), Мэттью Грей Гублер (Dr. Spencer Reid), Шемар Мур (Derek Morgan), А.Дж. Кук (Jennifer Jareau), Кирстен Вангснесс (Penelope Garcia), Лола Глаудини (Elle Greenaway), Пэйджет Брюстер (Emily Prentiss), Джейн Эткинсон (Erin Strauss), Джо Мантенья (David Rossi), Джон Бартон (Swat Leader), Джинн Трипплхорн (Alex Blake)

  • Описание:
    Главные герои сериала - команда лучших следователей ФБР, способных понять и проанализировать ход мыслей самых изощрённых преступников, предугадать их дальнейшие поступки и тем самым предотвратить ужасные преступления. Когда обычные криминалисты заходят в тупик, на помощь им приходят специалисты по поведенческому анализу. Вместо тщательного изучения улик они пытаются найти и понять мотивы преступления, досконально вникая в каждый шаг преступника и пытаясь мыслить, как он. Работая на месте преступления, эти профессионалы словно расследуют его изнутри, стараясь понять мысли преступника, какими бы тёмными они ни были.
  • Рейтинг:



  • Качество: WEB-DLRip
  • Формат: :AVI
  • Видео кодек: XviD
  • Аудио кодек: MP3
  • Видео: 720x400 (16:9), 1415 kbps, 23,976 fps, 0,205 bpp
  • Аудио №1: Русский 2.0 / 48 kHz / 128 kbps
  • Аудио №2: Английский 2.0 / 48 kHz / 128 kbps
  • Релиз от: GEKADOL

    Код:

    General
    Complete name                            : D:\Фильмы\Criminal Minds (S10)\Criminal.Minds.s10e23.WEBDLRip.NewStudio.TV.avi
    Format                                   : AVI
    Format/Info                              : Audio Video Interleave
    File size                                : 499 MiB
    Duration                                 : 41mn 25s
    Overall bit rate                         : 1 685 Kbps
    Writing application                      : VirtualDubMod 1.5.10.2 (build 2540/release)
    Writing library                          : VirtualDubMod build 2540/release

    Video
    ID                                       : 0
    Format                                   : MPEG-4 Visual
    Format profile                           : Advanced Simple@L5
    Format settings, BVOP                    : 2
    Format settings, QPel                    : No
    Format settings, GMC                     : No warppoints
    Format settings, Matrix                  : Default (MPEG)
    Codec ID                                 : XVID
    Codec ID/Hint                            : XviD
    Duration                                 : 41mn 25s
    Bit rate                                 : 1 415 Kbps
    Width                                    : 720 pixels
    Height                                   : 400 pixels
    Display aspect ratio                     : 16:9
    Frame rate                               : 23.976 fps
    Color space                              : YUV
    Chroma subsampling                       : 4:2:0
    Bit depth                                : 8 bits
    Scan type                                : Progressive
    Compression mode                         : Lossy
    Bits/(Pixel*Frame)                       : 0.205
    Stream size                              : 419 MiB (84%)
    Writing library                          : XviD 64

    Audio #1
    ID                                       : 1
    Format                                   : MPEG Audio
    Format version                           : Version 1
    Format profile                           : Layer 3
    Mode                                     : Joint stereo
    Mode extension                           : MS Stereo
    Codec ID                                 : 55
    Codec ID/Hint                            : MP3
    Duration                                 : 41mn 25s
    Bit rate mode                            : Constant
    Bit rate                                 : 128 Kbps
    Channel(s)                               : 2 channels
    Sampling rate                            : 48.0 KHz
    Compression mode                         : Lossy
    Stream size                              : 37.9 MiB (8%)
    Alignment                                : Aligned on interleaves
    Interleave, duration                     : 42 ms (1.00 video frame)
    Interleave, preload duration             : 504 ms

    Audio #2
    ID                                       : 2
    Format                                   : MPEG Audio
    Format version                           : Version 1
    Format profile                           : Layer 3
    Mode                                     : Joint stereo
    Mode extension                           : MS Stereo
    Codec ID                                 : 55
    Codec ID/Hint                            : MP3
    Duration                                 : 41mn 25s
    Bit rate mode                            : Constant
    Bit rate                                 : 128 Kbps
    Channel(s)                               : 2 channels
    Sampling rate                            : 48.0 KHz
    Compression mode                         : Lossy
    Stream size                              : 37.9 MiB (8%)
    Alignment                                : Aligned on interleaves
    Interleave, duration                     : 42 ms (1.00 video frame)
    Interleave, preload duration             : 504 ms


    Скриншоты:



    pb.wtf



  • Скачать Мыслить как преступник через торрент http://i72.fastpic.ru/big/2015/0527/c9/4bfd69d9d74b21d420716256550610c9.jpeg Скачать фильм Мыслить как преступник через торрент бесплантно в хорошем качестве Описание: Главные герои сериала - команда лучших следователей ФБР, способных понять и проанализировать ход мыслей самых изощрённых ... 10 10 1
    Info! Золотая раздача, скачанное не засчитывается.
    Торрент: Зарегистрирован [2015-05-27 09:49] · скачан: 131 раз
    Статус: √ проверено
    Размер: 11.22 GB
    Как cкачать? Как скачать Мыслить как преступник через торрент | qTorrent

    28-11-2019 20:33  

    Отключить всю рекламу на сайте

    28-05-2015 11:00 Мыслить как преступник Скачать торрент  

    Интересный сериал.
    С 1 сезона смотрю.
    Почти в каждой серии по новому маньячиле)))pb.wtf



    29-05-2015 19:27 Мыслить как преступник Скачать торрент  

    после таких сериалов и появляются новые Теды Бандиpb.wtf



      Дорогой пользователь! Огромная просьба, поблагодарите релизера, оцените раздачу и оставьте свои комментарий, если Вы скачали Мыслить как преступник через торрент бесплатно! Внесите свою лепту в развитие PiratBit!
      Комментировать посты могут только пользователи прошедшие не сложную регистрацию
      Показать сообщения:    

      Мыслить как преступник через торрент
      Скачать бесплатно Мыслить как преступник
      Мыслить как преступник скачать торрент
      Мыслить как преступник смотреть онлайн
      Cкачать фильм Мыслить как преступник бесплатно
      Мыслить как преступник скачать торрент в хорошем качестве
      Мыслить как преступник смотреть онлайн бесплатно в хорошем качестве


      Вы не можете начинать темы
      Вы не можете отвечать на сообщения
      Вы не можете редактировать свои сообщения
      Вы не можете удалять свои сообщения
      Вы не можете голосовать в опросах
      Вы не можете прикреплять файлы к сообщениям
      Вы можете скачивать файлы