2 сезон

iTunes

MVO

1

2 сезон

iTunes

iTunes

1 сезон

RePack

30

Новинка

ВАЖНО

ИГРА 18+

pack

RePack

MK11
pack

Легкие деньги

RePack

jed

RePack

fifa19

RePack

RDR2

RePack

NEED FOR SPEED™ PAYBACK

4 сезон

9 сезон

Бесстыжие 9 сезон

Все сериалы

все сериалы на PB.wtf

RePack

FAR CRY 5

Anonymous, добрый день, мы не успеваем собрать деньги на оплату серверов за декабрь и январь, помогите нам пожалуйста в это трудное время. В качестве благодарности мы отключим Вам всю рекламу на сайте (укажите свой ник в строку Ваше имя)!

×
  
Magnet ссылка

Специалист / The Specialist (Луис Ллоса) [1994 г., боевик, триллер, BDRip 720p] Dub (60Fps) pb.wtf

Специалист через торрент pb.wtf

Размер: 4.06 GB | Добавлен: 5 лет 7 мес. назад | Торрент скачан:125 раз
Скачать  

27-05-2015 10:27 Специалист Скачать торрент  

Специалист / The Specialist

Год выпуска: 1994
Страна: Перу, США
Жанр: боевик, триллер
Продолжительность: 01:49:57
Перевод: Дубляж
Субтитры: Русские

Режиссер: Луис Ллоса
Продюссер: Стив Бэррон, Чак Биндер, Сьюзэн Экинс
Сценарий: Александра Серос, Джон Ширли

Бюджет: $45 000 000
Премьера в мире: 7 октября 1994

лицам до 17 лет обязательно присутствие взрослого
Мировой рейтинг IMDB 5.10 (28 997)


В ролях: Сильвестр Сталлоне, Шэрон Стоун, Джеймс Вудс, Род Стайгер, Эрик Робертс, Марио Эрнесто Санчез, Серхио Доре мл., Чейз Рэндольф, Жанна Белл, Бриттани Пейдж Боак,

Роли дублировали: Дмитрий Матвеев, Анна Каменкова, Алексей Золотницкий, Сергей Чекан, Владимир Ферапонтов

Описание: Шэрон Стоун — в роли сексапильной красотки Мэй с роковым прошлым. Она поклялась отомстить гангстерам, убившим ее родителей, и уже выбрала способ, как с ними расправиться, и нашла человека, который это сделает: внешне невозмутимый бывший эксперт — подрывник ЦРУ Рэй.Майами, курорт для сверхбогачей, превращается в охотничью территорию, где Мэй заманивает и соблазняет убийц, а Рэй мастерски взрывает их, превращая в пепел.


Качество: BDRip 720p / 60 Fps
Формат: MKV
Видео кодек: H.264
Аудио кодек: AC3
Видео: x264, 1280 x 720 (16:9), 4802 kbps, 59,880 fps, ( 0.087 bpp)
Аудио#1: 48.0 kHz, AC3, 6ch, 384 kbps ( Dub ( Мост-Видео))



скриншот   скриншот   скриншот   скриншот   скриншот   скриншот  Автор рипа: slaventi-69
x264 [info]: frame I:2275 Avg QP:15.00 size: 88474
x264 [info]: frame P:97916 Avg QP:18.03 size: 25032
x264 [info]: frame B:295270 Avg QP:21.11 size: 4713
x264 [info]: consecutive B-frames: 2.5% 3.5% 12.0% 14.5% 67.6%


Общее
Уникальный идентификатор : 216573217531973478716984639796143795561 (0xA2EE7C06DCC5EF4384EB228FC04D2D69)
Полное имя : D:\The.Specialist.(1994).BDRip.720p.(60 Fps).mkv
Формат : Matroska
Версия формата : Version 4 / Version 2
Размер файла : 4,06 Гбайт
Продолжительность : 1 ч. 49 м.
Общий поток : 5291 Кбит/сек
Название фильма : Специалист / The Specialist (1994) BDRip 720p (60 Fps)
Дата кодирования : UTC 2015-05-23 16:21:00
Программа кодирования : mkvmerge v6.2.0 ('Promised Land') built on Apr 28 2013 12:22:01
Библиотека кодирования : libebml v1.3.0 + libmatroska v1.4.0

Видео
Идентификатор : 1
Формат : AVC
Формат/Информация : Advanced Video Codec
Профиль формата : High@L4.1
Параметр CABAC формата : Да
Параметр ReFrames формата : 4 кадра
Идентификатор кодека : V_MPEG4/ISO/AVC
Продолжительность : 1 ч. 49 м.
Битрейт : 4802 Кбит/сек
Ширина : 1280 пикселей
Высота : 720 пикселей
Соотношение сторон : 16:9
Режим частоты кадров : Постоянный
Частота кадров : 59,880 кадров/сек
Частота кадров в оригинале : 59,940 кадров/сек
Цветовое пространство : YUV
Субдискретизация насыщенности : 4:2:0
Битовая глубина : 8 бит
Тип развёртки : Прогрессивная
Бит/(Пиксели*Кадры) : 0.087
Размер потока : 3,69 Гбайт (91%)
Заголовок : The Specialist (1994) BDRip 720p (60 Fps).mkv
Библиотека кодирования : x264 core 130 r2273 b3065e6
Настройки программы : cabac=1 / ref=4 / deblock=1:-3:-3 / analyse=0x3:0x113 / me=umh / subme=8 / psy=1 / psy_rd=1.00:0.00 / mixed_ref=1 / me_range=24 / chroma_me=1 / trellis=2 / 8x8dct=1 / cqm=0 / deadzone=21,11 / fast_pskip=1 / chroma_qp_offset=-2 / threads=3 / lookahead_threads=1 / sliced_threads=0 / nr=0 / decimate=1 / interlaced=0 / bluray_compat=0 / constrained_intra=0 / bframes=4 / b_pyramid=2 / b_adapt=2 / b_bias=0 / direct=1 / weightb=1 / open_gop=0 / weightp=2 / keyint=250 / keyint_min=25 / scenecut=40 / intra_refresh=0 / rc_lookahead=50 / rc=crf / mbtree=1 / crf=16.0 / qcomp=0.60 / qpmin=0 / qpmax=69 / qpstep=4 / ip_ratio=1.40 / aq=1:1.00
Язык : English
Default : Да
Forced : Нет

Аудио
Идентификатор : 2
Формат : AC-3
Формат/Информация : Audio Coding 3
Расширение режима : CM (complete main)
Параметр Endianness формата : Big
Идентификатор кодека : A_AC3
Продолжительность : 1 ч. 49 м.
Вид битрейта : Постоянный
Битрейт : 384 Кбит/сек
Каналы : 6 каналов
Расположение каналов : Front: L C R, Side: L R, LFE
Частота : 48,0 КГц
Битовая глубина : 16 бит
Метод сжатия : С потерями
Размер потока : 302 Мбайт (7%)
Заголовок : Dub ( Мост-Видео)
Язык : Russian
Default : Да
Forced : Нет

Текст
Идентификатор : 3
Формат : UTF-8
Идентификатор кодека : S_TEXT/UTF8
Идентификатор кодека/Информация : UTF-8 Plain Text
Язык : Russian
Default : Нет
Forced : Нет

Меню
00:00:00.000 : en:00:00:00.000
00:05:25.325 : en:00:05:25.325
00:09:18.141 : en:00:09:18.141
00:12:17.654 : en:00:12:17.654
00:14:28.951 : en:00:14:28.951
00:18:21.934 : en:00:18:21.934
00:20:38.404 : en:00:20:38.404
00:23:49.887 : en:00:23:49.887
00:27:48.667 : en:00:27:48.667
00:30:43.258 : en:00:30:43.258
00:34:34.114 : en:00:34:34.114
00:36:42.158 : en:00:36:42.158
00:39:42.380 : en:00:39:42.380
00:41:54.095 : en:00:41:54.095
00:45:34.607 : en:00:45:34.607
00:47:50.743 : en:00:47:50.743
00:53:27.079 : en:00:53:27.079
00:57:00.500 : en:00:57:00.500
01:00:51.106 : en:01:00:51.106
01:04:35.705 : en:01:04:35.705
01:09:03.973 : en:01:09:03.973
01:12:44.652 : en:01:12:44.652
01:17:26.016 : en:01:17:26.016
01:20:43.464 : en:01:20:43.464
01:23:15.616 : en:01:23:15.616
01:24:54.506 : en:01:24:54.506
01:29:02.963 : en:01:29:02.963
01:32:18.950 : en:01:32:18.950
01:33:49.082 : en:01:33:49.082
01:35:37.482 : en:01:35:37.482
01:39:44.312 : en:01:39:44.312
01:42:18.841 : en:01:42:18.841
01:44:30.890 : en:01:44:30.890
01:45:20.022 : en:01:45:20.022

pb.wtf



Скачать Специалист через торрент https://pic.kartinco.top/images/11/xb1wo.jpg Скачать фильм Специалист через торрент бесплантно в хорошем качестве Описание: Шэрон Стоун — в роли сексапильной красотки Мэй с роковым прошлым. Она поклялась отомстить гангстерам, убившим ее родителей, и уже ... 10 10 10
Торрент: Зарегистрирован [2015-05-27 10:27] · скачан: 125 раз
Статус: √ проверено
Размер: 4.06 GB
Как cкачать? Как скачать Специалист через торрент | UTorrent

% Раздел Тема Автор DL S | L
Фильмы до 2000 г. [ 1.78 GB ] Специалист / The Specialist [1994 BDRip] [AVO] killermax2013 Скачать
1 | 0
Порно фильмы с сюжетом [ 1.07 GB ] Специалист / The Specialist [2007. Oral All Sex Nice Ass DVDRip]. FOXI Скачать
1 | 0
Лесбиянки [ 936 MB ] Лесбийские : Специалистки по страпону 5 / Lesbian Adventures: Strap On Specialists 5 [2013 All Girl Lesbian Strap Ons DVDRip Оригинал] sheker187 Скачать
1 | 0
Фильмы [HD 720p, 1080p] (Хороший звук DUB, MVO) [ 4.36 GB ] Специалист / The Specialist [1994 BDRip 1080p DUB] slaventi-69 Скачать
2 | 0
Фильмы до 2000 г. [ 1.91 GB ] Специалист / The Specialist [1994 BDRip] Мастер ЧИФир Скачать
1 | 1

28-11-2019 20:33  

Отключить всю рекламу на сайте

27-07-2015 16:24 Специалист Скачать торрент  

Скорости дайте пожалуйста!pb.wtf



    Дорогой пользователь! Огромная просьба, поблагодарите релизера, оцените раздачу и оставьте свои комментарий, если Вы скачали Специалист через торрент бесплатно! Внесите свою лепту в развитие PiratBit!
    Комментировать посты могут только пользователи прошедшие не сложную регистрацию
    Показать сообщения:    

    Специалист через торрент
    Скачать бесплатно Специалист
    Специалист скачать торрент
    Специалист смотреть онлайн
    Cкачать фильм Специалист бесплатно
    Специалист скачать торрент в хорошем качестве
    Специалист смотреть онлайн бесплатно в хорошем качестве


    Вы не можете начинать темы
    Вы не можете отвечать на сообщения
    Вы не можете редактировать свои сообщения
    Вы не можете удалять свои сообщения
    Вы не можете голосовать в опросах
    Вы не можете прикреплять файлы к сообщениям
    Вы можете скачивать файлы