Ссылка на приватное зеркало всего за 1$. Внимание количество ограничено!!!

OK

1+1

iTunes

мы

OK

1

WEB-DLRip

Джокер

Пифагор

Ведьмак / The Witcher сериал

Лицензия

ПШазам

ОК

Оно 2

iTunes

30
pack

Вам бонус

ВАЖНО

!!Акция!!

Alien_RageХит недели

RePack

Resident Evil 21

ИГРА 18+

pack

RePack

jed

RePack

fifa19

RePack

Assassins Creed: Odyssey

RePack

NEED FOR SPEED™ PAYBACK

4 сезон

9 сезон

Бесстыжие 9 сезон

Все сериалы

все сериалы на PB.wtf

RePack

FAR CRY 5
  

Кровь+ (сериал 2005-2006) / Blood+ (Майкл Хэк, Акико Хонда, Наомити Ямато) [2005 г., аниме, мультфильм, ужасы, боевик, драма, приключения, DVDRip, Любительский одноголосый] pb.wtf

Кровь+ через торрент pb.wtf

Размер: 11.44 GB | Добавлен: 4 года 7 мес. назад | Торрент скачан:23 раза
Скачать  

28-05-2015 08:12 Кровь+ Скачать торрент  

Кровь+ / Blood+



Год выпуска: 2005-2006
Страна: Япония
Жанр: аниме, мультфильм, ужасы, боевик, драма, приключения
Продолжительность: 24 мин.
Перевод: Любительский одноголосый

Режиссер: Майкл Хэк, Акико Хонда, Наомити Ямато
Продюссер: Фил С. Крейн, Мицухиса Исикава, Хидео Кацумата
Сценарий: Джо Д’Амброзия, Джуничи Фуджисаку, Мидори Гото

Премьера в мире: 8 октября 2005

IMDB 7.80 (3128)


В ролях: Оливия Хэк, Лиз Срока, Дайсукэ Оно, Кирико Аояма, Акари Хигути, Кэнити Огата, Дэвид Рэснер, Джин Домон, Дзюн Фукуяма, Фумио Мацуока

Описание: В течение многих веков в тени истории ни на миг не прекращается мало кому известная жестокая война. Бессмертным монстрам-оборотням, питающимся человеческой кровью, противостоит организация «Красный Щит», призванная разоблачать опасных тварей и уничтожать их. В наши дни эта извечная борьба принимает ещё более серьёзный оборот, в центре которого оказывается, на первый взгляд, обычная школьница из Окинавы. Красавица и спортсменка Сая Отонаси тихо и мирно живёт с отцом и братьями неподалёку от крупной американской военной базы. Проблема заключается в том, что её самые ранние воспоминания лишь годичной давности, все остальное будто стёрто. Правда, временами в памяти девушки всплывают пугающие образы иной жизни — перекошенные от ужаса лица и брызжущие потоки крови. От судьбы не спрячешься — жуткий инцидент прерывает безмятежную идиллию школьных будней. После того, как незнакомец в чёрном вложил в руки Саи меч, приказав: «Сражайся!», ей суждено столкнуться лицом к лицу со своим прошлым и открыть своё истинное я...


Качество: DVDRip
Формат: MKV
Видео кодек: MPEG4
Аудио кодек: MP3
Видео: х264, 896x672, ~850 кбит/с, 23.976fps
Аудио#1: русская - MP3, 2 ch, 192кбит/с, 44000Hz
Субтитры: Русские, отдельно
01. Первый поцелуй
02. Магия слова
03. Начальное место
04. Опасный Littly
05. За темным лесом
06. Рука отца
07. Если я не сделаю это
08. Призрак школы
09. Каждая радуга
10. Я хочу, чтобы ты
11. После танца
12. Оттянуто белым туманом
13. Рай жжунглей
14. Последнее воскресенье
15. Я хочу следовать!
16. Сибирский Экспресс
17. Вы помните наше обещание?
18. Екатеринбуржская луна
19. Разбитое сердце
20. Шевалье
21. Кислый виноград
22. Зоопарк
23. Два шевалье
24. Легкое пение
25. Красный щит
26. Те, кто следуют Saya
27. Paris, Je t'aime
28. Только один
29. Проклят кровью
30. Дневник Joe's
31. Разбитый щит
32. Мальчик встречается с девушкой
33. Вера в сердце
34. Мир, где мы?
35. Надежды завтра не будет
36. Попутные мысли
37. Сила Maddening
38. Остров. Решающее сражение
39. Магия слова еще раз
40. Шевалье посещение во сне
41. Моя
42. Эхо, певческий голос
43. Путаное сердце
44. В свете
45. Солнце в ладони
46. ​​Погода на завтра
47. Кровь превышает всё
48. Небоскреб Obera
49. Королева из двух человек
50. Все будет работать

скриншот   скриншот   скриншот   скриншот   скриншот   скриншот  

General
Unique ID : 221325636535738376529462671126891148183 (0xA681C45FC778D513BB233B9820D13397)
Complete name : E:\Тореннт\Blood +\Blood+ 36.mkv
Format : Matroska
Format version : Version 2
File size : 237 MiB
Duration : 23mn 57s
Overall bit rate : 1 386 Kbps
Encoded date : UTC 2009-10-26 11:56:05
Writing application : mkvmerge v2.9.7 ('Tenderness') built on Jul 1 2009 18:43:35
Writing library : libebml v0.7.7 + libmatroska v0.8.1

Video
ID : 1
Format : AVC
Format/Info : Advanced Video Codec
Format profile : High@L4.1
Format settings, CABAC : Yes
Format settings, ReFrames : 3 frames
Codec ID : V_MPEG4/ISO/AVC
Duration : 23mn 57s
Bit rate : 974 Kbps
Width : 896 pixels
Height : 672 pixels
Display aspect ratio : 4:3
Frame rate mode : Constant
Frame rate : 23.976 fps
Color space : YUV
Chroma subsampling : 4:2:0
Bit depth : 8 bits
Scan type : Progressive
Bits/(Pixel*Frame) : 0.067
Stream size : 167 MiB (70%)
Title : Ep36 - Passing Thoughts
Writing library : x264 core 60 r901M 58d7d06
Encoding settings : cabac=1 / ref=3 / deblock=1:2:2 / analyse=0x3:0x113 / me=umh / subme=7 / rdcmp=psy / brdo=1 / mixed_ref=1 / me_range=32 / chroma_me=1 / trellis=1 / 8x8dct=1 / cqm=0 / deadzone=21,11 / chroma_qp_offset=0 / threads=6 / nr=0 / decimate=0 / mbaff=0 / bframes=3 / b_pyramid=1 / b_adapt=1 / b_bias=0 / direct=3 / wpredb=1 / bime=1 / keyint=250 / keyint_min=25 / scenecut=60(pre) / rc=crf / crf=22.0 / rceq='blurCplx^(1-qComp)' / qcomp=0.80 / qpmin=10 / qpmax=51 / qpstep=4 / ip_ratio=1.40 / pb_ratio=1.30 / aq=0
Default : Yes
Forced : No

Audio #1
ID : 2
Format : MPEG Audio
Format version : Version 1
Format profile : Layer 3
Codec ID : A_MPEG/L3
Codec ID/Hint : MP3
Duration : 23mn 57s
Bit rate mode : Constant
Bit rate : 192 Kbps
Channel(s) : 2 channels
Sampling rate : 44.1 KHz
Compression mode : Lossy
Stream size : 32.9 MiB (14%)
Title : Azazel
Language : Russian
Default : Yes
Forced : No

Audio #2
ID : 3
Format : AC-3
Format/Info : Audio Coding 3
Mode extension : CM (complete main)
Format settings, Endianness : Big
Codec ID : A_AC3
Duration : 23mn 57s
Bit rate mode : Constant
Bit rate : 192 Kbps
Channel(s) : 2 channels
Channel positions : Front: L R
Sampling rate : 48.0 KHz
Bit depth : 16 bits
Compression mode : Lossy
Stream size : 32.9 MiB (14%)
Title : Original
Language : Japanese
Default : No
Forced : No

Приятного просмотра!
pb.wtf



Скачать Кровь+ через торрент http://pic1.kartinco.top/images/10/a5rww.jpg Скачать фильм Кровь+ через торрент бесплантно в хорошем качестве Описание: В течение многих веков в тени истории ни на миг не прекращается мало кому известная жестокая война. Бессмертным ... 10 10 5
Info! Золотая раздача, скачанное не засчитывается.
Торрент: Зарегистрирован [2015-05-28 08:12] · скачан: 23 раз
Статус: √ проверено
Размер: 11.44 GB
Как cкачать? Как скачать Кровь+ через торрент | qTorrent

% Раздел Тема Автор DL S | L
RPG [ 3.94 GB ] Магия крови. Золотое издание / Blood magic. Gold Edition [лицензия RU] Ubik1 Скачать
1 | 1
RPG [ 5.91 GB ] Divinity II. Кровь драконов [лицензияRURPG] Mitay98 Скачать
1 | 0
RPG [ 14.35 GB ] Sacred 2 Gold: Fallen Angel + Ice & Blood / Князь Тьмы 2. Падший Ангел + Лёд и Кровь [2.62.2] [лицензия RU RPG / Action] Mr. Freeman Скачать
1 | 0
RPG [ 4.12 GB ] Sacred 2: Ice & Blood / Sacred 2: Лед и кровь [L] Shmel Скачать
1 | 0
Рок, Панк, Альтернатива (lossless) [ 257 MB ] Король и Шут -TODD- Акт 1. Праздник Крови - 2011 FLAC lossless AlexThunder007 Скачать
1 | 0
Зарубежные сериалы [ 69.76 GB ] Спартак: кровь и песок / Spartacus: Blood and Sand / 1 сезон / 01-13 серии [2010 BDRip 1080p] dub LostFilm + sub rus/eng genkasper Скачать
1 | 0
Action FPS (1st Person) [ 2.35 GB ] Call of Juarez Узы крови / Call of Juarez Bound in Blood [1.1] [RePack RU] от Spieler Mr. Freeman Скачать
1 | 0

28-11-2019 20:33  

Отключить всю рекламу на сайте


    Дорогой пользователь! Огромная просьба, поблагодарите релизера, оцените раздачу и оставьте свои комментарий, если Вы скачали Кровь+ через торрент бесплатно! Внесите свою лепту в развитие PiratBit!
    Комментировать посты могут только пользователи прошедшие не сложную регистрацию
    Показать сообщения:    

    Кровь+ через торрент
    Скачать бесплатно Кровь+
    Кровь+ скачать торрент
    Кровь+ смотреть онлайн
    Cкачать фильм Кровь+ бесплатно
    Кровь+ скачать торрент в хорошем качестве
    Кровь+ смотреть онлайн бесплатно в хорошем качестве


    Вы не можете начинать темы
    Вы не можете отвечать на сообщения
    Вы не можете редактировать свои сообщения
    Вы не можете удалять свои сообщения
    Вы не можете голосовать в опросах
    Вы не можете прикреплять файлы к сообщениям
    Вы можете скачивать файлы