Ссылка на приватное зеркало нашего сайта всего за 1$. Внимание количество ограничено!!!

2 сезон

iTunes

1 сезон

1

2 сезон

2 сезон

iTunes

1 сезон

RePack

30

Ultimate

ВАЖНО

ИГРА 18+

pack

RePack

MK11
pack

Забери бонус

RePack

jed

!!Акция!!

Alien_Rage

RePack

fifa19

RePack

Assassins Creed: Odyssey

RePack

NEED FOR SPEED™ PAYBACK

4 сезон

9 сезон

Бесстыжие 9 сезон

Все сериалы

все сериалы на PB.wtf

RePack

FAR CRY 5
  

Жизнь продолжается / Staying Alive (Шарлотта Блом / Charlotte Blom) [2015, Норвегия, комедия, HDRip, Любительский (одноголосый)[Andi] pb.wtf

Жизнь продолжается через торрент pb.wtf

Размер: 1.37 GB | Добавлен: 5 лет 6 мес. назад | Торрент скачан:129 раз
Скачать  

29-05-2015 09:27 Жизнь продолжается Скачать торрент  

Жизнь продолжается / Staying Alive


  • Год выпуска: 2015
  • Страна: Норвегия
  • Жанр: комедия
  • Продолжительность: 01:22:58
  • Перевод: Любительский (одноголосый)[Andi]

  • Режиссер: Шарлотта Блом / Charlotte Blom
  • В ролях:

    Агнес Киттелсен (Marianne), Андерс Баасмо Кристиансен (Håkon), Линн Скобер (Kristin), Нильс Йорген Каалстад (Truls), Allis Vedal Strømberg (Emma), Маттис Сиберг-Лунд (Jens), Анна Мари Оттерсен (Marianne's mother), Tor Erik Gunstrøm (Marianne's father), Heidi Toini (Frida), Stein Torleif Bjella (Fireman), Джонни Логан (Johnny Logan)

  • Описание:
    Марианна наслаждается идеальной жизнью. У нее любящий муж, замечательные дети, регулярные романтические ужины при свечах и все такое... Эта сказка заканчивается, когда выяснется, что муж завел любовницу и собирается бежать из семьи. Хорошо, что у Марианны есть лучшая подруга Кристин, которая всегда готова оказать моральную поддержку.
  • Рейтинг:



  • Качество: HDRip
  • Формат: :AVI
  • Видео кодек: XviD
  • Аудио кодек: AC3
  • Видео: 720x400 (16:9), 2061 kbps, 24 fps, 0,298 bpp
  • Аудио: 2.0 / 48 kHz / 192 kbps / 16 bit
  • Релиз от: GEKADOL

    Код:

    General
    Complete name                            : D:\Фильмы\Staying.Alive.2015.L1.HDRip.avi
    Format                                   : AVI
    Format/Info                              : Audio Video Interleave
    File size                                : 1.37 GiB
    Duration                                 : 1h 22mn
    Overall bit rate                         : 2 355 Kbps
    Writing application                      : VirtualDubMod 1.5.10.3 | www.virtualdub-fr.org || (build 2550/release)
    Writing library                          : VirtualDubMod build 2550/release

    Video
    ID                                       : 0
    Format                                   : MPEG-4 Visual
    Format profile                           : Advanced Simple@L5
    Format settings, BVOP                    : 1
    Format settings, QPel                    : No
    Format settings, GMC                     : No warppoints
    Format settings, Matrix                  : Custom
    Codec ID                                 : XVID
    Codec ID/Hint                            : XviD
    Duration                                 : 1h 22mn
    Bit rate                                 : 2 061 Kbps
    Width                                    : 720 pixels
    Height                                   : 400 pixels
    Display aspect ratio                     : 16:9
    Frame rate                               : 24.000 fps
    Color space                              : YUV
    Chroma subsampling                       : 4:2:0
    Bit depth                                : 8 bits
    Scan type                                : Progressive
    Compression mode                         : Lossy
    Bits/(Pixel*Frame)                       : 0.298
    Stream size                              : 1.19 GiB (88%)
    Writing library                          : XviD 73

    Audio
    ID                                       : 1
    Format                                   : AC-3
    Format/Info                              : Audio Coding 3
    Mode extension                           : CM (complete main)
    Codec ID                                 : 2000
    Duration                                 : 1h 22mn
    Bit rate mode                            : Constant
    Bit rate                                 : 192 Kbps
    Channel(s)                               : 2 channels
    Channel positions                        : Front: L R
    Sampling rate                            : 48.0 KHz
    Bit depth                                : 16 bits
    Compression mode                         : Lossy
    Stream size                              : 114 MiB (8%)
    Alignment                                : Split accross interleaves




    Скриншоты:
    скриншот   скриншот   скриншот   скриншот   скриншот  
    скриншот  


    pb.wtf



  • Скачать Жизнь продолжается через торрент http://i5.imageban.ru/out/2015/05/29/ad45bcaa78a342ab132e36dfb186fc0c.jpg Скачать фильм Жизнь продолжается через торрент бесплантно в хорошем качестве Описание: Марианна наслаждается идеальной жизнью. У нее любящий муж, замечательные дети, регулярные романтические ужины при свечах и все ... 10 10 5
    Торрент: Зарегистрирован [2015-05-29 09:27] · скачан: 129 раз
    Статус: √ проверено
    Размер: 1.37 GB
    Как cкачать? Как скачать Жизнь продолжается через торрент | qTorrent

    28-11-2019 20:33  

    Отключить всю рекламу на сайте

      Дорогой пользователь! Огромная просьба, поблагодарите релизера, оцените раздачу и оставьте свои комментарий, если Вы скачали Жизнь продолжается через торрент бесплатно! Внесите свою лепту в развитие PiratBit!
      Комментировать посты могут только пользователи прошедшие не сложную регистрацию
      Показать сообщения:    

      Жизнь продолжается через торрент
      Скачать бесплатно Жизнь продолжается
      Жизнь продолжается скачать торрент
      Жизнь продолжается смотреть онлайн
      Cкачать фильм Жизнь продолжается бесплатно
      Жизнь продолжается скачать торрент в хорошем качестве
      Жизнь продолжается смотреть онлайн бесплатно в хорошем качестве


      Вы не можете начинать темы
      Вы не можете отвечать на сообщения
      Вы не можете редактировать свои сообщения
      Вы не можете удалять свои сообщения
      Вы не можете голосовать в опросах
      Вы не можете прикреплять файлы к сообщениям
      Вы можете скачивать файлы