Ссылка на приватное зеркало нашего сайта всего за 1$. Внимание количество ограничено!!!

2 сезон

iTunes

1 сезон

1

iTunes

iTunes

iTunes

1 сезон

RePack

30

ИГРА 18+

pack

ВАЖНО

!!Акция!!

Alien_RageХит недели

RePack

MK11
pack

Забери бонус

RePack

jed

!!Акция!!

Alien_Rage

RePack

fifa19

RePack

Assassins Creed: Odyssey

RePack

NEED FOR SPEED™ PAYBACK

4 сезон

9 сезон

Бесстыжие 9 сезон

Все сериалы

все сериалы на PB.wtf

RePack

FAR CRY 5
  

Всё ещё Элис / Still Alice (Ричард Глацер / Richard Glatzer, Уош Уэстмоленд / Wash Westmoreland) [2014, драма, BDRip 1080p] MVO + AVO (Котов) + Original + Sub (Rus, Eng) pb.wtf

Всё ещё Элис через торрент pb.wtf

Размер: 12.03 GB | Добавлен: 5 лет 4 мес. назад | Торрент скачан:21 раз
Скачать  

29-05-2015 14:35 Всё ещё Элис Скачать торрент  

Всё ещё Элис / Still Alice



Год выпуска: 2014
Страна: США, Франция
Жанр: драма
Продолжительность: 01:41:15
Перевод: Профессиональный (многоголосый, закадровый) [Лицензия]
Субтитры: Русские (Full), Английские (Full)



Режиссер:
  • Ричард Глацер / Richard Glatzer, Уош Уэстмоленд / Wash Westmoreland
В ролях:
  • Джулианна Мур, Алек Болдуин, Кристен Стюарт, Кейт Босворт, Шэйн МакРей, Хантер Пэрриш, Сет Гиллиам, Стефан Канкен, Эрин Майя Дарк, Дэниэл Джерролл, Куинси Тайлер Бернстайн, Максин Прескотт
Описание: Элис Хаулэнд - известный профессор лингвистики. Она счастлива в браке, у нее трое взрослых детей. Но все меняется, когда однажды она начинает забывать слова...



Качество: BDRip 1080p
Формат: MKV
Видео кодек: AVC
Аудио кодек: AC3 / DTS
Видео: 1920x1036 (1.853), 23,976 fps, 13015 kbps, 0,273 bpp
Аудио №1: русский, 48 kHz, AC3, 5.1 ch, 640 kbps | Многоголосый закадровый, Blu-ray CEE
Аудио №2: русский, 48 kHz, DTS, 5.1 ch, 1510 kbps | Одноголосый закадровый, В.Котов
Аудио №3: английский, 48 kHz, DTS, 5.1 ch, 1510 kbps


Код:

General
Unique ID                                : 226766316801520004702047742480911396003 (0xAA999A9F21833FBA811D57B8FE236CA3)
Complete name                            : D:\Всё ещё Элис (2014) BDRip 1080p.mkv
Format                                   : Matroska
Format version                           : Version 4 / Version 2
File size                                : 12.0 GiB
Duration                                 : 1h 41mn
Overall bit rate                         : 17.0 Mbps
Encoded date                             : UTC 2015-05-29 14:23:41
Writing application                      : mkvmerge v6.9.1 ('Blue Panther') 32bit built on Apr 18 2014 18:15:44
Writing library                          : libebml v1.3.0 + libmatroska v1.4.1
Attachment                               : Yes

Video
ID                                       : 1
Format                                   : AVC
Format/Info                              : Advanced Video Codec
Format profile                           : High@L4.1
Format settings, CABAC                   : Yes
Format settings, ReFrames                : 4 frames
Codec ID                                 : V_MPEG4/ISO/AVC
Duration                                 : 1h 41mn
Bit rate                                 : 13.0 Mbps
Width                                    : 1 920 pixels
Height                                   : 1 036 pixels
Display aspect ratio                     : 1.853
Frame rate                               : 23.976 fps
Color space                              : YUV
Chroma subsampling                       : 4:2:0
Bit depth                                : 8 bits
Scan type                                : Progressive
Bits/(Pixel*Frame)                       : 0.273
Stream size                              : 9.21 GiB (77%)
Title                                    : EbP
Writing library                          : x264 core 146 r2538 121396c
Encoding settings                        : cabac=1 / ref=4 / deblock=1:-3:-3 / analyse=0x3:0x113 / me=umh / subme=10 / psy=1 / psy_rd=0.95:0.00 / mixed_ref=1 / me_range=32 / chroma_me=1 / trellis=2 / 8x8dct=1 / cqm=0 / deadzone=21,11 / fast_pskip=0 / chroma_qp_offset=-2 / threads=18 / lookahead_threads=3 / sliced_threads=0 / nr=0 / decimate=0 / interlaced=0 / bluray_compat=0 / constrained_intra=0 / bframes=9 / b_pyramid=2 / b_adapt=2 / b_bias=0 / direct=3 / weightb=1 / open_gop=0 / weightp=2 / keyint=240 / keyint_min=23 / scenecut=40 / intra_refresh=0 / rc_lookahead=80 / rc=crf / mbtree=0 / crf=16.8 / qcomp=0.60 / qpmin=10 / qpmax=51 / qpstep=4 / vbv_maxrate=62500 / vbv_bufsize=78125 / crf_max=0.0 / nal_hrd=none / filler=0 / ip_ratio=1.40 / pb_ratio=1.30 / aq=2:0.70
Language                                 : English
Default                                  : Yes
Forced                                   : No

Audio #1
ID                                       : 2
Format                                   : AC-3
Format/Info                              : Audio Coding 3
Mode extension                           : CM (complete main)
Codec ID                                 : A_AC3
Duration                                 : 1h 41mn
Bit rate mode                            : Constant
Bit rate                                 : 640 Kbps
Channel(s)                               : 6 channels
Channel positions                        : Front: L C R, Side: L R, LFE
Sampling rate                            : 48.0 KHz
Bit depth                                : 16 bits
Compression mode                         : Lossy
Stream size                              : 463 MiB (4%)
Title                                    : Многоголосый закадровый, Blu-ray CEE
Language                                 : Russian
Default                                  : Yes
Forced                                   : No

Audio #2
ID                                       : 3
Format                                   : DTS
Format/Info                              : Digital Theater Systems
Codec ID                                 : A_DTS
Duration                                 : 1h 41mn
Bit rate mode                            : Constant
Bit rate                                 : 1 510 Kbps
Channel(s)                               : 6 channels
Channel positions                        : Front: L C R, Side: L R, LFE
Sampling rate                            : 48.0 KHz
Bit depth                                : 24 bits
Compression mode                         : Lossy
Stream size                              : 1.07 GiB (9%)
Title                                    : Одноголосый закадровый, В.Котов
Language                                 : Russian
Default                                  : No
Forced                                   : No

Audio #3
ID                                       : 4
Format                                   : DTS
Format/Info                              : Digital Theater Systems
Codec ID                                 : A_DTS
Duration                                 : 1h 41mn
Bit rate mode                            : Constant
Bit rate                                 : 1 510 Kbps
Channel(s)                               : 6 channels
Channel positions                        : Front: L C R, Side: L R, LFE
Sampling rate                            : 48.0 KHz
Bit depth                                : 24 bits
Compression mode                         : Lossy
Delay relative to video                  : 11ms
Stream size                              : 1.07 GiB (9%)
Title                                    : Оригинал
Language                                 : English
Default                                  : No
Forced                                   : No

Text #1
ID                                       : 5
Format                                   : UTF-8
Codec ID                                 : S_TEXT/UTF8
Codec ID/Info                            : UTF-8 Plain Text
Title                                    : Full
Language                                 : Russian
Default                                  : No
Forced                                   : No

Text #2
ID                                       : 6
Format                                   : UTF-8
Codec ID                                 : S_TEXT/UTF8
Codec ID/Info                            : UTF-8 Plain Text
Title                                    : Full
Language                                 : English
Default                                  : No
Forced                                   : No

Menu
00:00:00.000                             : en:00:00:00.000
00:04:40.697                             : en:00:04:40.697
00:11:03.246                             : en:00:11:03.246
00:15:37.895                             : en:00:15:37.895
00:21:34.668                             : en:00:21:34.668
00:28:51.063                             : en:00:28:51.063
00:36:54.546                             : en:00:36:54.546
00:43:54.841                             : en:00:43:54.841
00:49:39.518                             : en:00:49:39.518
00:58:20.247                             : en:00:58:20.247
01:05:08.863                             : en:01:05:08.863
01:11:36.000                             : en:01:11:36.000
01:16:38.886                             : en:01:16:38.886
01:20:02.172                             : en:01:20:02.172
01:27:08.849                             : en:01:27:08.849
01:30:08.945                             : en:01:30:08.945

Бюджет фильма: $5 000 000
Премьера (мир): 8 сентября 2014
Данный релиз идеален для пополнения домашней коллекции BDRip'ов.
В релиз вшита русская обложка размером 520х600 пикселей (аналогичные размеры у всех обложек для данной категории), что позволяет предать визуальную красоту Ваших фильмов.
Так же релиз максимально наполнен аудио дорожками в высоком качестве и субтитрами в формате srt.
Раздача обновляемая! При выходе других авторских переводов, релиз будет обновлен!
Итак, посмотрим на примере, как будет выглядеть Ваша коллекция: скриншот  
К сожалению, далеко не все, встроенные в телевизор медиаплееры, умеют воспроизводить звук в формате "DTS".
Выходов несколько: либо скачать другую раздачу, в которой звук будет в формате "АС3", либо перекодировать из "DTS" в "АС3".
Так же можно воспроизвести фильм с Вашего персонального компьютера/ноутбука, подключенного к телевизору через провод HDMI.
Фильмы выпускаются для кинотеатров, с пропорциями 2.35:1. И в таком же виде обычно издаются на дисках.
Монитор 16:9 имеет пропорции 1.77:1 поэтому более широкоформатное кино будет отображаться с черными полосами.
Надо это просто принять, ведь так снимают многие кинокартины.
Но некоторые фильмы могут быть и на весь экран. Особенно сериалы.
В рипах обычно обрезают черные полосы, и получают разрешение 1920х800, где приблизительно 280 пикселей занимали, повторюсь, черные полосы на экране.
Пример кадра "на весь экран": скриншот  
Пример кадра "не на весь экран": скриншот  
pb.wtf



Скачать Всё ещё Элис через торрент http://i69.fastpic.ru/big/2015/0529/9b/1d7487d430bff29613d3cffd4b9b7e9b.png Скачать фильм Всё ещё Элис через торрент бесплантно в хорошем качестве Описание: Элис Хаулэнд - известный профессор лингвистики. Она счастлива в браке, у нее трое взрослых детей. Но все меняется, когда однажды ... 10 10 6
Info! Золотая раздача, скачанное не засчитывается.
Торрент: Зарегистрирован [2015-05-29 14:40] · скачан: 21 раз
Статус: √ проверено
Размер: 12.03 GB
Как cкачать? Как скачать Всё ещё Элис через торрент | qTorrent

% Раздел Тема Автор DL S | L
Фильмы (Blu-ray, BD-Remux, HDDVD) [ 30.11 GB ] Всё ещё Элис / Still Alice [2014 Blu-Ray] / Russian Mafia Скачать
1 | 0
Фильмы 2014 [DVDrip, WEB-DLRip, HDrip] [ 2.18 GB ] Всё ещё Элис / Still Alice [2014 BDRip-AVC] MVO [] potroks Скачать
2 | 0
Фильмы 2014 [DVDrip, WEB-DLRip, HDrip] [ 746 MB ] Всё ещё Элис / Still Alice [2014 BDRip-AVC] MVO () sokol_ok Скачать
2 | 0
Фильмы 2014 [DVDrip, WEB-DLRip, HDrip] [ 2.18 GB ] Всё ещё Элис / Still Alice [2014 BDRip-AVC] MVO () + Original + Sub sokol_ok Скачать
2 | 0
Фильмы 2014 [DVDrip, WEB-DLRip, HDrip] [ 1.45 GB ] Всё ещё Элис / Still Alice [2014 BDRip-AVC] MVO () sokol_ok Скачать
2 | 0
Фильмы с авторской озвучкой [ 2.02 GB ] Всё ещё Элис / Still Alice [2014 HDRip Авторский одноголосый закадровый "В.Котов"] coc900 Скачать
1 | 0
Фильмы [HD 720p, 1080p] (Хороший звук DUB, MVO) [ 4.25 GB ] Всё ещё Элис / Still Alice [2014 BDRip 720p] MVO AVO _denis_100 Скачать
1 | 0

28-11-2019 20:33  

Отключить всю рекламу на сайте

    Дорогой пользователь! Огромная просьба, поблагодарите релизера, оцените раздачу и оставьте свои комментарий, если Вы скачали Всё ещё Элис через торрент бесплатно! Внесите свою лепту в развитие PiratBit!
    Комментировать посты могут только пользователи прошедшие не сложную регистрацию
    Показать сообщения:    

    Всё ещё Элис через торрент
    Скачать бесплатно Всё ещё Элис
    Всё ещё Элис скачать торрент
    Всё ещё Элис смотреть онлайн
    Cкачать фильм Всё ещё Элис бесплатно
    Всё ещё Элис скачать торрент в хорошем качестве
    Всё ещё Элис смотреть онлайн бесплатно в хорошем качестве


    Вы не можете начинать темы
    Вы не можете отвечать на сообщения
    Вы не можете редактировать свои сообщения
    Вы не можете удалять свои сообщения
    Вы не можете голосовать в опросах
    Вы не можете прикреплять файлы к сообщениям
    Вы можете скачивать файлы