Ссылка на приватное зеркало всего за 1$. Внимание количество ограничено!!!

iTunes

iTunes

iTunes

1

iTunes

iTunes

iTunes

iTunes

iTunes

30
pack

$ от Little Big

ВАЖНО

!!Акция!!

Alien_RageХит недели

RePack

Resident Evil 21

ИГРА 18+

pack

RePack

jed

!!Акция!!

Alien_Rage

RePack

fifa19

RePack

Assassins Creed: Odyssey

RePack

NEED FOR SPEED™ PAYBACK

4 сезон

9 сезон

Бесстыжие 9 сезон

Все сериалы

все сериалы на PB.wtf

RePack

FAR CRY 5
  

Фунт плоти / Pound Of Flesh (Эрни Барбараш ) [2015, боевик, WEB-DL 720p, Любительский (одноголосый) [datynet] pb.wtf

Фунт плоти через торрент pb.wtf

Размер: 3.11 GB | Добавлен: 5 лет 1 мес. назад | Торрент скачан:114 раз
Скачать  

29-05-2015 21:53 Фунт плоти Скачать торрент  


Фунт плоти / Pound Of Flesh


ИНФОРМАЦИЯ:
Год выпуска:2015
Страна: Канада
Жанр: боевик
Продолжительность: 01:44:39
Перевод: Любительский (одноголосый) [datynet]
Субтитры: Dutch,
Режиссер: Эрни Барбараш

В Ролях:


Жан-Клод Ван Дамм, Даррен Шалави (Goran), Джон Ралстон (George), Джейсон Дж. Тобин (Liam), Кевин Ли (Club Bouncer), Шарлотта Питерс (Ana), Аки Алеонг (Kung), Темур Мамисашвили (Show fighter), Майк Лидер (Boris), Филипп Жоли (Zoltan), Эндрю Нг (Father Gabriel), Брахим Ачаббаке (Nardo)

Описание:
Однажды ночью главный герой спасает женщину, но на следующее утро просыпается в номере отеля и обнаруживает, что лежит в ванной весь в крови и без одной почки...

  • Мировая премьера:23 марта 2015

    ТЕХ.ДАННЫЕ:
    Качество: WEB-DL 720p
    Формат: MKV
    Видео кодек: AVC
    Аудио кодек: AC3, MP3
    Видео: AVC, 1280x720 (16:9), 3593 kbps, 23,976 fps, 0,163 bpp
    Аудио №1: русский / MP3 / 2.0 / 44 kHz / 192 kbps / ||
    Аудио №2: английский / AC3 / 5.1 / 48 kHz / 384 kbps / 16 bit



    Код:

    General
    Unique ID                                : 200782878776712371825102699850878236473 (0x970D603813293D5B8BCF7FAAFD393739)
    Complete name                            : D:\Торенты\Pound.of.Flesh.2015.L1.WEBDL.720p.mkv
    Format                                   : Matroska
    Format version                           : Version 4 / Version 2
    File size                                : 3.11 GiB
    Duration                                 : 1h 44mn
    Overall bit rate mode                    : Variable
    Overall bit rate                         : 4 255 Kbps
    Encoded date                             : UTC 2015-05-29 18:38:23
    Writing application                      : mkvmerge v7.3.0 ('Nouages') 64bit built on Oct 22 2014 18:53:34
    Writing library                          : libebml v1.3.0 + libmatroska v1.4.1

    Video
    ID                                       : 1
    Format                                   : AVC
    Format/Info                              : Advanced Video Codec
    Format profile                           : High@L4.1
    Format settings, CABAC                   : Yes
    Format settings, ReFrames                : 3 frames
    Codec ID                                 : V_MPEG4/ISO/AVC
    Duration                                 : 1h 44mn
    Bit rate mode                            : Variable
    Bit rate                                 : 3 594 Kbps
    Maximum bit rate                         : 40.0 Mbps
    Width                                    : 1 280 pixels
    Height                                   : 720 pixels
    Display aspect ratio                     : 16:9
    Frame rate                               : 23.976 fps
    Color space                              : YUV
    Chroma subsampling                       : 4:2:0
    Bit depth                                : 8 bits
    Scan type                                : Progressive
    Bits/(Pixel*Frame)                       : 0.163
    Stream size                              : 2.63 GiB (84%)
    Title                                    : Pound of Flesh 2015 720p dd5.1 nl subs by lrt
    Writing library                          : x264 core 146 r2538 121396c
    Encoding settings                        : cabac=1 / ref=4 / deblock=1:-1:-1 / analyse=0x3:0x133 / me=umh / subme=9 / psy=1 / psy_rd=1.00:0.15 / mixed_ref=1 / me_range=16 / chroma_me=1 / trellis=2 / 8x8dct=1 / cqm=0 / deadzone=21,11 / fast_pskip=1 / chroma_qp_offset=-3 / threads=12 / lookahead_threads=1 / sliced_threads=0 / slices=4 / nr=0 / decimate=1 / interlaced=0 / bluray_compat=0 / constrained_intra=0 / bframes=3 / b_pyramid=1 / b_adapt=2 / b_bias=0 / direct=3 / weightb=1 / open_gop=0 / weightp=0 / keyint=23 / keyint_min=1 / scenecut=40 / intra_refresh=0 / rc_lookahead=23 / rc=crf / mbtree=1 / crf=19.5 / qcomp=0.60 / qpmin=10 / qpmax=51 / qpstep=4 / vbv_maxrate=40000 / vbv_bufsize=30000 / crf_max=0.0 / nal_hrd=vbr / filler=0 / ip_ratio=1.40 / aq=1:1.00
    Default                                  : Yes
    Forced                                   : No
    Color primaries                          : BT.709-5, BT.1361, IEC 61966-2-4, SMPTE RP177
    Transfer characteristics                 : BT.709-5, BT.1361
    Matrix coefficients                      : BT.709-5, BT.1361, IEC 61966-2-4 709, SMPTE RP177

    Audio #1
    ID                                       : 2
    Format                                   : MPEG Audio
    Format version                           : Version 1
    Format profile                           : Layer 3
    Codec ID                                 : A_MPEG/L3
    Codec ID/Hint                            : MP3
    Duration                                 : 1h 44mn
    Bit rate mode                            : Constant
    Bit rate                                 : 192 Kbps
    Channel(s)                               : 2 channels
    Sampling rate                            : 44.1 KHz
    Compression mode                         : Lossy
    Stream size                              : 144 MiB (5%)
    Language                                 : Russian
    Default                                  : Yes
    Forced                                   : Yes

    Audio #2
    ID                                       : 3
    Format                                   : AC-3
    Format/Info                              : Audio Coding 3
    Mode extension                           : CM (complete main)
    Codec ID                                 : A_AC3
    Duration                                 : 1h 44mn
    Bit rate mode                            : Constant
    Bit rate                                 : 384 Kbps
    Channel(s)                               : 6 channels
    Channel positions                        : Front: L C R, Side: L R, LFE
    Sampling rate                            : 48.0 KHz
    Bit depth                                : 16 bits
    Compression mode                         : Lossy
    Stream size                              : 287 MiB (9%)
    Language                                 : English
    Default                                  : No
    Forced                                   : No

    Text
    ID                                       : 4
    Format                                   : UTF-8
    Codec ID                                 : S_TEXT/UTF8
    Codec ID/Info                            : UTF-8 Plain Text
    Language                                 : Dutch
    Default                                  : No
    Forced                                   : No

    Скриншоты:


    © Оформление by Ворон
    pb.wtf



  • Скачать Фунт плоти через торрент http://pic.kartinco.top/images/6/ordi9.jpg Скачать фильм Фунт плоти через торрент бесплантно в хорошем качестве Описание: Однажды ночью главный герой спасает женщину, но на следующее утро просыпается в номере отеля и обнаруживает, что лежит в ванной ... 10 10 9
    Торрент: Зарегистрирован [2015-05-29 21:53] · скачан: 114 раз
    Статус: T временная
    Размер: 3.11 GB
    Как cкачать? Как скачать Фунт плоти через торрент | qTorrent

    % Раздел Тема Автор DL S | L
    T Фильмы 2015 (Звук TS, Cam, VO, DVO) [ 1.37 GB ] Фунт плоти / Pound Of Flesh [2015 WEB-DLRip Любительское [ColdFilm] Ворон Скачать
    1 | 0
    T Фильмы (WEB-DL 720p, 1080p) [ 2.61 GB ] Фунт плоти / Pound Of Flesh [2015 WEB-DL 720p Любительское [ColdFilm] Ворон Скачать
    1 | 0
    T Фильмы 2015 (Звук TS, Cam, VO, DVO) [ 1.28 GB ] Фунт плоти / Pound Of Flesh [2015 WEB-DLRip Любительский [datynet] Ворон Скачать
    1 | 0

    28-11-2019 20:33  

    Отключить всю рекламу на сайте

    30-05-2015 09:01 Фунт плоти Скачать торрент  

    Стоит качать?pb.wtf



    30-05-2015 09:05 Фунт плоти Скачать торрент  

    Vii25 писал(а):

    Стоит качать?

    pb.wtf



    30-05-2015 09:27 Фунт плоти Скачать торрент  

    Евгений1978 писал(а):

    Vii25 писал(а):

    Стоит качать?


    ?pb.wtf



    30-05-2015 11:06 Фунт плоти Скачать торрент  

    ролик вроде неплохой но стаким перевод с мотреть неинтересно хотя в ролике перевод отличный многоголосыйpb.wtf



    01-06-2015 00:52 Фунт плоти Скачать торрент  

    да уж-повеселил ван-дам-все почки за фильм растерялpb.wtf



      Дорогой пользователь! Огромная просьба, поблагодарите релизера, оцените раздачу и оставьте свои комментарий, если Вы скачали Фунт плоти через торрент бесплатно! Внесите свою лепту в развитие PiratBit!
      Комментировать посты могут только пользователи прошедшие не сложную регистрацию
      Показать сообщения:    

      Фунт плоти через торрент
      Скачать бесплатно Фунт плоти
      Фунт плоти скачать торрент
      Фунт плоти смотреть онлайн
      Cкачать фильм Фунт плоти бесплатно
      Фунт плоти скачать торрент в хорошем качестве
      Фунт плоти смотреть онлайн бесплатно в хорошем качестве


      Вы не можете начинать темы
      Вы не можете отвечать на сообщения
      Вы не можете редактировать свои сообщения
      Вы не можете удалять свои сообщения
      Вы не можете голосовать в опросах
      Вы не можете прикреплять файлы к сообщениям
      Вы можете скачивать файлы