Ссылка на приватное зеркало нашего сайта всего за 1$. Внимание количество ограничено!!!

2 сезон

iTunes

1 сезон

1

2 сезон

2 сезон

iTunes

1 сезон

RePack

30

Новинка

ВАЖНО

ИГРА 18+

pack

RePack

MK11
pack

Забери бонус

RePack

jed

!!Акция!!

Alien_Rage

RePack

fifa19

RePack

Assassins Creed: Odyssey

RePack

NEED FOR SPEED™ PAYBACK

4 сезон

9 сезон

Бесстыжие 9 сезон

Все сериалы

все сериалы на PB.wtf

RePack

FAR CRY 5
  

Фунт плоти / Pound Of Flesh (Эрни Барбараш ) [2015, боевик, WEB-DLRip, Любительский (одноголосый) [datynet] pb.wtf

Фунт плоти через торрент pb.wtf

Размер: 1.28 GB | Добавлен: 5 лет 5 мес. назад | Торрент скачан:191 раз
Скачать  

29-05-2015 21:55 Фунт плоти Скачать торрент  


Фунт плоти / Pound Of Flesh


ИНФОРМАЦИЯ:
Год выпуска:2015
Страна: Канада
Жанр: боевик
Продолжительность: 01:44:13
Перевод: Любительский (одноголосый) [datynet]
Режиссер: Эрни Барбараш

В Ролях:


Жан-Клод Ван Дамм, Даррен Шалави (Goran), Джон Ралстон (George), Джейсон Дж. Тобин (Liam), Кевин Ли (Club Bouncer), Шарлотта Питерс (Ana), Аки Алеонг (Kung), Темур Мамисашвили (Show fighter), Майк Лидер (Boris), Филипп Жоли (Zoltan), Эндрю Нг (Father Gabriel), Брахим Ачаббаке (Nardo)

Описание:
Однажды ночью главный герой спасает женщину, но на следующее утро просыпается в номере отеля и обнаруживает, что лежит в ванной весь в крови и без одной почки...

  • Мировая премьера:23 марта 2015

    ТЕХ.ДАННЫЕ:
    Качество: WEB-DLRip
    Формат: AVI
    Видео кодек: XviD
    Аудио кодек: MP3
    Видео: XviD, 720x400 (16:9), 1485 kbps, 23,976 fps, 0,215 bpp
    Аудио: MP3 / 2.0 / 44 kHz / 192 kbps /
    Сэмпл: Скачать


    Код:

    General
    Complete name                            : D:\Торенты\Pound.of.Flesh.2015.HDRip.avi
    Format                                   : AVI
    Format/Info                              : Audio Video Interleave
    File size                                : 1.28 GiB
    Duration                                 : 1h 44mn
    Overall bit rate                         : 1 756 Kbps
    Writing library                          : VirtualDub build 34753/release

    Video
    ID                                       : 0
    Format                                   : MPEG-4 Visual
    Format profile                           : Advanced Simple@L5
    Format settings, BVOP                    : 2
    Format settings, QPel                    : No
    Format settings, GMC                     : No warppoints
    Format settings, Matrix                  : Default (H.263)
    Muxing mode                              : Packed bitstream
    Codec ID                                 : XVID
    Codec ID/Hint                            : XviD
    Duration                                 : 1h 44mn
    Bit rate                                 : 1 486 Kbps
    Width                                    : 720 pixels
    Height                                   : 400 pixels
    Display aspect ratio                     : 16:9
    Frame rate                               : 23.976 fps
    Color space                              : YUV
    Chroma subsampling                       : 4:2:0
    Bit depth                                : 8 bits
    Scan type                                : Progressive
    Compression mode                         : Lossy
    Bits/(Pixel*Frame)                       : 0.215
    Stream size                              : 1.08 GiB (85%)
    Writing library                          : XviD 66

    Audio
    ID                                       : 1
    Format                                   : MPEG Audio
    Format version                           : Version 1
    Format profile                           : Layer 3
    Codec ID                                 : 55
    Codec ID/Hint                            : MP3
    Duration                                 : 1h 44mn
    Bit rate mode                            : Constant
    Bit rate                                 : 192 Kbps
    Channel(s)                               : 2 channels
    Sampling rate                            : 44.1 KHz
    Compression mode                         : Lossy
    Stream size                              : 143 MiB (11%)
    Alignment                                : Split accross interleaves

    Скриншоты:


    © Оформление by Ворон
    pb.wtf



  • Скачать Фунт плоти через торрент http://pic.kartinco.top/images/6/ordi9.jpg Скачать фильм Фунт плоти через торрент бесплантно в хорошем качестве Описание: Однажды ночью главный герой спасает женщину, но на следующее утро просыпается в номере отеля и обнаруживает, что лежит в ванной ... 10 10 8
    Торрент: Зарегистрирован [2015-05-29 21:55] · скачан: 191 раз
    Статус: T временная
    Размер: 1.28 GB
    Как cкачать? Как скачать Фунт плоти через торрент | qTorrent

    % Раздел Тема Автор DL S | L
    T Фильмы 2015 (Звук TS, Cam, VO, DVO) [ 1.37 GB ] Фунт плоти / Pound Of Flesh [2015 WEB-DLRip Любительское [ColdFilm] Ворон Скачать
    1 | 0
    T Фильмы (WEB-DL 720p, 1080p) [ 2.61 GB ] Фунт плоти / Pound Of Flesh [2015 WEB-DL 720p Любительское [ColdFilm] Ворон Скачать
    1 | 0
    T Фильмы (WEB-DL 720p, 1080p) [ 3.11 GB ] Фунт плоти / Pound Of Flesh [2015 WEB-DL 720p Любительский [datynet] Ворон Скачать
    1 | 0

    28-11-2019 20:33  

    Отключить всю рекламу на сайте

      Дорогой пользователь! Огромная просьба, поблагодарите релизера, оцените раздачу и оставьте свои комментарий, если Вы скачали Фунт плоти через торрент бесплатно! Внесите свою лепту в развитие PiratBit!
      Комментировать посты могут только пользователи прошедшие не сложную регистрацию
      Показать сообщения:    

      Фунт плоти через торрент
      Скачать бесплатно Фунт плоти
      Фунт плоти скачать торрент
      Фунт плоти смотреть онлайн
      Cкачать фильм Фунт плоти бесплатно
      Фунт плоти скачать торрент в хорошем качестве
      Фунт плоти смотреть онлайн бесплатно в хорошем качестве


      Вы не можете начинать темы
      Вы не можете отвечать на сообщения
      Вы не можете редактировать свои сообщения
      Вы не можете удалять свои сообщения
      Вы не можете голосовать в опросах
      Вы не можете прикреплять файлы к сообщениям
      Вы можете скачивать файлы