Ссылка на приватное зеркало всего за 1$. Внимание количество ограничено!!!

iTunes

iTunes

iTunes

1

iTunes

iTunes

iTunes

iTunes

iTunes

30
pack

Новость дня

ВАЖНО

!!Акция!!

Alien_RageХит недели

RePack

Resident Evil 21

ИГРА 18+

pack

RePack

jed

!!Акция!!

Alien_Rage

RePack

fifa19

RePack

Assassins Creed: Odyssey

RePack

NEED FOR SPEED™ PAYBACK

4 сезон

9 сезон

Бесстыжие 9 сезон

Все сериалы

все сериалы на PB.wtf

RePack

FAR CRY 5
  

Приличные люди (Клим Поплавский ) [2015, комедия, WEB-DLRip][iTunes] pb.wtf

Приличные люди через торрент pb.wtf

Размер: 1.37 GB | Добавлен: 5 лет назад | Торрент скачан:2135 раз
Скачать  

29-05-2015 22:04 Приличные люди Скачать торрент  


Приличные люди
«Во все тяжкие»

ИНФОРМАЦИЯ:
Год выпуска:2015
Страна: Россия
Жанр: комедия
Продолжительность: 01:26:49
Перевод: Не требуется[iTunes]
Режиссер: Клим Поплавский

В Ролях:


Сергей Шнуров (дядя Игорь), Евгений Сморигин (учитель), Наталия Медведева (мама), Григорий Цветков (Никита), Артём Башенин (Виталик), Алексей Гришин (Паша), Игорь Хрипунов (Лёня), Андрей Федорцов, Константин Мурзенко, Лариса Малеванная (Мария Фёдоровна), Дмитрий Куличков (полицейский), Артем Смола (полицейский)

Описание:
Что делать, если в вашем доме поселился родственник, недавно освободившийся из тюрьмы? И сделал жизнь вашей семьи невыносимой. А вы с женой случайно его убили. И соседский мальчик видел, как вы пытались закопать труп на заднем дворе. А инспектор ДПС обратил внимание на вашего неразговорчивого родственника в машине. Не очень представляя себе жизнь за решеткой, вы, наверное, должны избавиться от трупа... и, видимо, от маленького свидетеля ... и полицейскому вы тоже как-то не должны позволить рассказать, что у вас в машине не совсем живой человек и чужой ребенок...


ТЕХ.ДАННЫЕ:
Качество: WEB-DLRip
Формат: AVI
Видео кодек: XviD
Аудио кодек: AC3
Видео: XviD, 720x384 (1.875), 1772 kbps, 25 fps, 0,256 bpp
Аудио: AC3 / 5.1 / 48 kHz / 384 kbps / 16 bit



Код:

General
Complete name                            : D:\Торенты\5rilichnye.1udi.2015.O.WEB-DLRip.1400MB.avi
Format                                   : AVI
Format/Info                              : Audio Video Interleave
File size                                : 1.37 GiB
Duration                                 : 1h 26mn
Overall bit rate                         : 2 255 Kbps
Writing application                      : VirtualDubMod 1.5.10.3 | www.virtualdub-fr.org || (build 2550/release)
Writing library                          : VirtualDubMod build 2550/release

Video
ID                                       : 0
Format                                   : MPEG-4 Visual
Format profile                           : Advanced Simple@L5
Format settings, BVOP                    : 2
Format settings, QPel                    : No
Format settings, GMC                     : No warppoints
Format settings, Matrix                  : Default (MPEG)
Codec ID                                 : XVID
Codec ID/Hint                            : XviD
Duration                                 : 1h 26mn
Bit rate                                 : 1 772 Kbps
Width                                    : 720 pixels
Height                                   : 384 pixels
Display aspect ratio                     : 1.875
Frame rate                               : 25.000 fps
Color space                              : YUV
Chroma subsampling                       : 4:2:0
Bit depth                                : 8 bits
Scan type                                : Progressive
Compression mode                         : Lossy
Bits/(Pixel*Frame)                       : 0.256
Stream size                              : 1.07 GiB (79%)
Writing library                          : XviD 1.2.1 (UTC 2008-12-04)

Audio
ID                                       : 1
Format                                   : AC-3
Format/Info                              : Audio Coding 3
Mode extension                           : CM (complete main)
Codec ID                                 : 2000
Duration                                 : 1h 26mn
Bit rate mode                            : Constant
Bit rate                                 : 384 Kbps
Channel(s)                               : 6 channels
Channel positions                        : Front: L C R, Side: L R, LFE
Sampling rate                            : 48.0 KHz
Bit depth                                : 16 bits
Compression mode                         : Lossy
Stream size                              : 238 MiB (17%)
Alignment                                : Split accross interleaves

Скриншоты:


© Оформление by Ворон
pb.wtf



Скачать Приличные люди через торрент http://pic.kartinco.top/images/6/ordi9.jpg Скачать фильм Приличные люди через торрент бесплантно в хорошем качестве Описание: Что делать, если в вашем доме поселился родственник, недавно освободившийся из тюрьмы? И сделал жизнь вашей семьи невыносимой. А ... 9.4 10 35
Info! Золотая раздача, скачанное не засчитывается.
Торрент: Зарегистрирован [2015-05-29 22:04] · скачан: 2 135 раз
Статус: √ проверено
Размер: 1.37 GB
Как cкачать? Как скачать Приличные люди через торрент | qTorrent

% Раздел Тема Автор DL S | L
Наши фильмы (HD, WEB-DL 720p, 1080p) [ 3.26 GB ] Приличные люди [2015 WEB-DL 1080p] Ворон Скачать
1 | 0

28-11-2019 20:33  

Отключить всю рекламу на сайте

01-06-2015 06:14 Приличные люди Скачать торрент  

Даже не досмотрел. Нудятина.pb.wtf



04-06-2015 18:11 Приличные люди Скачать торрент  

-"Брата" смотрел?
-Нет, физику учил! sarcasticpb.wtf



17-06-2015 18:41 Приличные люди Скачать торрент  

Воооооообще гумно отстойноеpb.wtf



    Дорогой пользователь! Огромная просьба, поблагодарите релизера, оцените раздачу и оставьте свои комментарий, если Вы скачали Приличные люди через торрент бесплатно! Внесите свою лепту в развитие PiratBit!
    Комментировать посты могут только пользователи прошедшие не сложную регистрацию
    Показать сообщения:    

    Приличные люди через торрент
    Скачать бесплатно Приличные люди
    Приличные люди скачать торрент
    Приличные люди смотреть онлайн
    Cкачать фильм Приличные люди бесплатно
    Приличные люди скачать торрент в хорошем качестве
    Приличные люди смотреть онлайн бесплатно в хорошем качестве


    Вы не можете начинать темы
    Вы не можете отвечать на сообщения
    Вы не можете редактировать свои сообщения
    Вы не можете удалять свои сообщения
    Вы не можете голосовать в опросах
    Вы не можете прикреплять файлы к сообщениям
    Вы можете скачивать файлы