Ссылка на приватное зеркало всего за 1$. Внимание количество ограничено!!!

iTunes

iTunes

iTunes

1

iTunes

iTunes

iTunes

iTunes

iTunes

30
pack

$ от Little Big

ВАЖНО

!!Акция!!

Alien_RageХит недели

RePack

Resident Evil 21

ИГРА 18+

pack

RePack

jed

!!Акция!!

Alien_Rage

RePack

fifa19

RePack

Assassins Creed: Odyssey

RePack

NEED FOR SPEED™ PAYBACK

4 сезон

9 сезон

Бесстыжие 9 сезон

Все сериалы

все сериалы на PB.wtf

RePack

FAR CRY 5
  

Слендер / Always Watching: A Marble Hornets Story (Джеймс Моран ) [2015, ужасы, WEB-DL 1080p, Дубляж -Лицензия / iTunes] pb.wtf

Слендер через торрент pb.wtf

Размер: 3.32 GB | Добавлен: 5 лет 1 мес. назад | Торрент скачан:528 раз
Скачать  

29-05-2015 22:24 Слендер Скачать торрент  


Слендер / Always Watching: A Marble Hornets Story
«Он придет за тобой!»

ИНФОРМАЦИЯ:
Год выпуска:2015
Страна: США
Жанр: ужасы
Продолжительность: 01:27:43
Перевод: Дубляж - [Лицензия / iTunes]
Режиссер: Джеймс Моран

В Ролях:


Крис Маркетт (Milo), Александра Брекенридж (Sara), Джейк Макдорман (Charlie MacNeel), Даг Джонс (The Operator), Майкл Бунин (Dan), Александра Холден (Rose), Морган Е. Бастин (Tara), Блэр Бомар (Nikki), Рик Отто (Lee Dylan), Шэшони Холл (Dennis Baru), Синтия Марелл (Karaoke Girl), Грэхэм Кларк (Everett)

Описание:
Съемочная группа, готовящая сюжет про исчезнувшую семью, обнаруживает коробку кассет со свидетельствами появления Слендера - страшного существа, которое можно увидеть только через объектив видеокамеры. Посмотрев пленки, они навлекают на себя ужасное проклятье: их начинает преследовать сам Слендер, от которого не спрятаться и не скрыться.

  • Мировая премьера:7 апреля 2015

    ТЕХ.ДАННЫЕ:
    Качество: WEB-DL 1080p
    Формат: MKV
    Видео кодек: AVC
    Аудио кодек: AC3
    Видео: AVC, 1920x1080 (16:9), 4930 kbps, 25 fps, 0,095 bpp
    Аудио: русский / AC3 / 5.1 / 48 kHz / 384 kbps / 16 bit ||
    Навигация по главам: есть



    Код:

    General
    Unique ID                                : 191795195667481177869391261637473671007 (0x904A693ABD9AE15CA66B27A1BFEF175F)
    Complete name                            : D:\Торенты\Slender.2015.D.WEB-DL.1080p.mkv
    Format                                   : Matroska
    Format version                           : Version 4 / Version 2
    File size                                : 3.32 GiB
    Duration                                 : 1h 27mn
    Overall bit rate                         : 5 422 Kbps
    Encoded date                             : UTC 2015-05-27 18:20:46
    Writing application                      : mkvmerge v7.6.0 ('Garden of Dreams') 32bit built on Feb  8 2015 12:51:39
    Writing library                          : libebml v1.3.1 + libmatroska v1.4.2

    Video
    ID                                       : 1
    Format                                   : AVC
    Format/Info                              : Advanced Video Codec
    Format profile                           : High@L4.0
    Format settings, CABAC                   : Yes
    Format settings, ReFrames                : 4 frames
    Codec ID                                 : V_MPEG4/ISO/AVC
    Duration                                 : 1h 27mn
    Bit rate                                 : 4 930 Kbps
    Width                                    : 1 920 pixels
    Height                                   : 1 080 pixels
    Display aspect ratio                     : 16:9
    Frame rate                               : 25.000 fps
    Color space                              : YUV
    Chroma subsampling                       : 4:2:0
    Bit depth                                : 8 bits
    Scan type                                : Progressive
    Bits/(Pixel*Frame)                       : 0.095
    Stream size                              : 3.02 GiB (91%)
    Language                                 : English
    Default                                  : Yes
    Forced                                   : No
    Color primaries                          : BT.709-5, BT.1361, IEC 61966-2-4, SMPTE RP177
    Transfer characteristics                 : BT.709-5, BT.1361
    Matrix coefficients                      : BT.709-5, BT.1361, IEC 61966-2-4 709, SMPTE RP177

    Audio
    ID                                       : 2
    Format                                   : AC-3
    Format/Info                              : Audio Coding 3
    Mode extension                           : CM (complete main)
    Codec ID                                 : A_AC3
    Duration                                 : 1h 27mn
    Bit rate mode                            : Constant
    Bit rate                                 : 384 Kbps
    Channel(s)                               : 6 channels
    Channel positions                        : Front: L C R, Side: L R, LFE
    Sampling rate                            : 48.0 KHz
    Bit depth                                : 16 bits
    Compression mode                         : Lossy
    Stream size                              : 241 MiB (7%)
    Language                                 : Russian
    Default                                  : Yes
    Forced                                   : No

    Menu
    00:00:00.000                             : en:Глава 1
    00:06:17.000                             : en:Глава 2
    00:11:53.000                             : en:Глава 3
    00:17:12.000                             : en:Глава 4
    00:23:12.000                             : en:Глава 5
    00:30:01.000                             : en:Глава 6
    00:34:55.000                             : en:Глава 7
    00:40:28.000                             : en:Глава 8
    00:44:51.000                             : en:Глава 9
    00:49:31.000                             : en:Глава 10
    00:52:23.000                             : en:Глава 11
    00:55:36.000                             : en:Глава 12
    00:58:30.000                             : en:Глава 13
    01:00:46.000                             : en:Глава 14
    01:04:23.000                             : en:Глава 15
    01:07:33.000                             : en:Глава 16
    01:11:16.000                             : en:Глава 17
    01:14:35.000                             : en:Глава 18
    01:19:07.000                             : en:Глава 19

    Скриншоты:


    © Оформление by Ворон
    pb.wtf



  • Скачать Слендер через торрент http://pic.kartinco.top/images/6/ordi9.jpg Скачать фильм Слендер через торрент бесплантно в хорошем качестве Описание: Съемочная группа, готовящая сюжет про исчезнувшую семью, обнаруживает коробку кассет со свидетельствами появления Слендера - ... 9.7 10 16
    Info! Золотая раздача, скачанное не засчитывается.
    Торрент: Зарегистрирован [2015-05-29 22:24] · скачан: 528 раз
    Статус: √ проверено
    Размер: 3.32 GB
    Как cкачать? Как скачать Слендер через торрент | qTorrent

    % Раздел Тема Автор DL S | L
    Фильмы 2015 [DVDrip, WEB-DLRip, HDrip] [ 1.42 GB ] Слендер / Always Watching: A Marble Hornets Story [2015 BDRip] Dub Twi7ter Скачать
    1 | 0
    Фильмы [HD 720p, 1080p] (Хороший звук DUB, MVO) [ 7.46 GB ] Слендер / Always Watching: A Marble Hornets Story [2015 BDRip 1080p - Ворон Скачать
    1 | 0
    Фильмы 2015 [DVDrip, WEB-DLRip, HDrip] [ 708 MB ] Слендер / Always Watching: A Marble Hornets Story [2015 WEB-DLRip ""] coc900 Скачать
    1 | 0
    Фильмы 2015 [DVDrip, WEB-DLRip, HDrip] [ 1.37 GB ] Слендер / Always Watching: A Marble Hornets Story [2015 WEB-DLRip - / ] Ворон Скачать
    1 | 0
    Фильмы (WEB-DL 720p, 1080p) [ 2.72 GB ] Слендер / Always Watching: A Marble Hornets Story [2015 WEB-DL 720p - / ] Ворон Скачать
    1 | 0

    28-11-2019 20:33  

    Отключить всю рекламу на сайте

    31-05-2015 04:07 Слендер Скачать торрент  

    стоит смотреть?pb.wtf



    10-06-2015 09:36 Слендер Скачать торрент  

    Полу бред,Но угарно то что там этот призрак на Hitman из игры похож sarcastic sarcastic sarcastic sarcasticpb.wtf



      Дорогой пользователь! Огромная просьба, поблагодарите релизера, оцените раздачу и оставьте свои комментарий, если Вы скачали Слендер через торрент бесплатно! Внесите свою лепту в развитие PiratBit!
      Комментировать посты могут только пользователи прошедшие не сложную регистрацию
      Показать сообщения:    

      Слендер через торрент
      Скачать бесплатно Слендер
      Слендер скачать торрент
      Слендер смотреть онлайн
      Cкачать фильм Слендер бесплатно
      Слендер скачать торрент в хорошем качестве
      Слендер смотреть онлайн бесплатно в хорошем качестве


      Вы не можете начинать темы
      Вы не можете отвечать на сообщения
      Вы не можете редактировать свои сообщения
      Вы не можете удалять свои сообщения
      Вы не можете голосовать в опросах
      Вы не можете прикреплять файлы к сообщениям
      Вы можете скачивать файлы