2 сезон

iTunes

1 сезон

1

iTunes

iTunes

iTunes

1 сезон

RePack

30

ИГРА 18+

pack

ВАЖНО

!!Акция!!

Alien_RageХит недели

RePack

MK11
pack

Забери бонус

RePack

jed

!!Акция!!

Alien_Rage

RePack

fifa19

RePack

Assassins Creed: Odyssey

RePack

NEED FOR SPEED™ PAYBACK

4 сезон

9 сезон

Бесстыжие 9 сезон

Все сериалы

все сериалы на PB.wtf

RePack

FAR CRY 5
  

Спасение / The Salvation (Кристиан Левринг ) [2014, драма, вестерн, BDRip 1080p] Дубляж - (Лицензия)+ DVO (Студия Jaskier) + AVO (А.Матвеев) от R.G. HD-Films pb.wtf

Спасение через торрент pb.wtf

Размер: 13.4 GB | Добавлен: 5 лет 5 мес. назад | Торрент скачан:95 раз
Скачать  

29-05-2015 23:43 Спасение Скачать торрент  


Спасение / The Salvation
«Плохие парни умоются кровью»

Год выпуска:2014
Страна: Дания, Великобритания, ЮАР
Жанр:драма, вестерн
Продолжительность:01:28:21
Перевод:Дубляж - [Лицензия]+DVO+AVO
Субтитры: английские (force), русские (Russian (Матвеев)), русские (Russian (Notabenoid)), английские (English),
Режиссер:Кристиан Левринг

  • В ролях:

    Мадс Миккельсен (Jon), Ева Грин (Madelaine), Джеффри Дин Морган (Delarue), Эрик Кантона (Corsican), Микаэл Персбрандт (Peter), Дуглас Хеншэлл (Mallick), Майкл Рэймонд-Джеймс (Paul), Джонатан Прайс (Keane), Александр Арнольд (Voichek), Нанна Оланд Фабрициус (Marie), Токе Бьярке (Kresten), Шон Майкл (Lester)
  • Описание:
    Джон, фермер, чья семья убита, дает клятву отомстить, выслеживает и наказывает убийцу. Его действия запускают цепочку насилия: лидер местной банды со своими напарниками решает расправиться с Джоном и его деревней.

  • Мировая премьера:17 мая 2014

    Качество: BDRip 1080p
    Формат:MKV
    Видео кодек: AVC
    Аудио кодек:AC3
    Видео: AVC, 1920x800 (2.40:1), 19160 kbps, 25 fps, 0,499 bpp
    Аудио №1: русский / AC-3, 48.0 KHz, 6 ch, 384 Kbps, Дубляж - [Лицензия]
    Аудио №2: русский / AC3 / 5.1 / 48 kHz / 448 kbps / 16 bit || |Профессиональный двухголосый (Студия Jaskier)|
    Аудио №3: русский / AC3 / 5.1 / 48 kHz / 640 kbps / 16 bit || |Авторский одноголосый (А.Матвеев)|
    Аудио №4: английский / AC3 / 5.1 / 48 kHz / 640 kbps / 16 bit
    Навигация по главам: есть


    Код:

    Общее
    Уникальный идентификатор                 : 196533170378555931545805179829797332940 (0x93DAE96B0D72730AB05670951E2527CC)
    Полное имя                               : D:\Торенты\HD\The Salvation 2014 1080p Release for Piratbit.net_R.G. HD-Films .mkv
    Формат                                   : Matroska
    Версия формата                           : Version 4 / Version 2
    Размер файла                             : 13,4 Гбайт
    Продолжительность                        : 1 ч. 28 м.
    Общий поток                              : 21,7 Мбит/сек
    Название фильма                          : Release for Piratbit.net_R.G. HD-Films
    Дата кодирования                         : UTC 2015-05-29 23:12:33
    Программа кодирования                    : mkvmerge v6.7.0 ('Back to the Ground') 64bit built on Jan  8 2014 15:10:52
    Библиотека кодирования                   : libebml v1.3.0 + libmatroska v1.4.1
    Attachements                             : cover.PNG

    Видео
    Идентификатор                            : 1
    Формат                                   : AVC
    Формат/Информация                        : Advanced Video Codec
    Профиль формата                          : High@L4.1
    Параметр CABAC формата                   : Да
    Параметр ReFrames формата                : 5 кадров
    Идентификатор кодека                     : V_MPEG4/ISO/AVC
    Продолжительность                        : 1 ч. 28 м.
    Битрейт                                  : 19,2 Мбит/сек
    Ширина                                   : 1920 пикселей
    Высота                                   : 800 пикселей
    Соотношение сторон                       : 2,40:1
    Режим частоты кадров                     : Постоянный
    Частота кадров                           : 25,000 кадров/сек
    Цветовое пространство                    : YUV
    Субдискретизация насыщенности            : 4:2:0
    Битовая глубина                          : 8 бит
    Тип развёртки                            : Прогрессивная
    Бит/(Пиксели*Кадры)                      : 0.499
    Размер потока                            : 11,8 Гбайт (88%)
    Заголовок                                : The Salvation (2014)
    Библиотека кодирования                   : x264 core 144 r2525kMod 40bb568
    Настройки программы                      : cabac=1 / ref=5 / deblock=1:-3:-3 / analyse=0x3:0x133 / me=umh / subme=10 / psy=1 / fade_compensate=0.00 / psy_rd=1.05:0.00 / mixed_ref=1 / me_range=16 / chroma_me=1 / trellis=2 / 8x8dct=1 / cqm=0 / deadzone=21,11 / fast_pskip=0 / chroma_qp_offset=-2 / threads=12 / lookahead_threads=2 / sliced_threads=0 / nr=0 / decimate=0 / interlaced=0 / bluray_compat=0 / constrained_intra=0 / fgo=0 / bframes=7 / b_pyramid=2 / b_adapt=2 / b_bias=0 / direct=3 / weightb=1 / open_gop=0 / weightp=2 / keyint=250 / keyint_min=25 / scenecut=40 / intra_refresh=0 / rc=crf / mbtree=0 / crf=17.8000 / qcomp=0.60 / qpmin=0 / qpmax=69 / qpstep=4 / ip_ratio=1.30 / pb_ratio=1.10 / aq=3:0.60
    Язык                                     : English
    Default                                  : Да
    Forced                                   : Нет

    Аудио #1
    Идентификатор                            : 2
    Формат                                   : AC-3
    Формат/Информация                        : Audio Coding 3
    Расширение режима                        : CM (complete main)
    Параметр Endianness формата              : Big
    Идентификатор кодека                     : A_AC3
    Продолжительность                        : 1 ч. 28 м.
    Вид битрейта                             : Постоянный
    Битрейт                                  : 384 Кбит/сек
    Каналы                                   : 6 каналов
    Расположение каналов                     : Front: L C R, Side: L R, LFE
    Частота                                  : 48,0 КГц
    Битовая глубина                          : 16 бит
    Метод сжатия                             : С потерями
    Размер потока                            : 243 Мбайт (2%)
    Заголовок                                : Дублированное [лицензия]
    Язык                                     : Russian
    Default                                  : Да
    Forced                                   : Да

    Аудио #2
    Идентификатор                            : 3
    Формат                                   : AC-3
    Формат/Информация                        : Audio Coding 3
    Расширение режима                        : CM (complete main)
    Параметр Endianness формата              : Big
    Идентификатор кодека                     : A_AC3
    Продолжительность                        : 1 ч. 28 м.
    Вид битрейта                             : Постоянный
    Битрейт                                  : 448 Кбит/сек
    Каналы                                   : 6 каналов
    Расположение каналов                     : Front: L C R, Side: L R, LFE
    Частота                                  : 48,0 КГц
    Битовая глубина                          : 16 бит
    Метод сжатия                             : С потерями
    Размер потока                            : 283 Мбайт (2%)
    Заголовок                                : Профессиональный двухголосый (Студия Jaskier)
    Язык                                     : Russian
    Default                                  : Нет
    Forced                                   : Нет

    Аудио #3
    Идентификатор                            : 4
    Формат                                   : AC-3
    Формат/Информация                        : Audio Coding 3
    Расширение режима                        : CM (complete main)
    Параметр Endianness формата              : Big
    Идентификатор кодека                     : A_AC3
    Продолжительность                        : 1 ч. 28 м.
    Вид битрейта                             : Постоянный
    Битрейт                                  : 640 Кбит/сек
    Каналы                                   : 6 каналов
    Расположение каналов                     : Front: L C R, Side: L R, LFE
    Частота                                  : 48,0 КГц
    Битовая глубина                          : 16 бит
    Метод сжатия                             : С потерями
    Размер потока                            : 404 Мбайт (3%)
    Заголовок                                : Авторский одноголосый (Матвеев)
    Язык                                     : Russian
    Default                                  : Нет
    Forced                                   : Нет

    Аудио #4
    Идентификатор                            : 5
    Формат                                   : AC-3
    Формат/Информация                        : Audio Coding 3
    Расширение режима                        : CM (complete main)
    Параметр Endianness формата              : Big
    Идентификатор кодека                     : A_AC3
    Продолжительность                        : 1 ч. 28 м.
    Вид битрейта                             : Постоянный
    Битрейт                                  : 640 Кбит/сек
    Каналы                                   : 6 каналов
    Расположение каналов                     : Front: L C R, Side: L R, LFE
    Частота                                  : 48,0 КГц
    Битовая глубина                          : 16 бит
    Метод сжатия                             : С потерями
    Размер потока                            : 404 Мбайт (3%)
    Заголовок                                : AC-3  5.1 @ 640 Kbps
    Язык                                     : English
    Default                                  : Нет
    Forced                                   : Нет

    Текст #1
    Идентификатор                            : 6
    Формат                                   : UTF-8
    Идентификатор кодека                     : S_TEXT/UTF8
    Идентификатор кодека/Информация          : UTF-8 Plain Text
    Заголовок                                : force
    Язык                                     : English
    Default                                  : Нет
    Forced                                   : Нет

    Текст #2
    Идентификатор                            : 7
    Формат                                   : UTF-8
    Идентификатор кодека                     : S_TEXT/UTF8
    Идентификатор кодека/Информация          : UTF-8 Plain Text
    Заголовок                                : Russian (Матвеев)
    Язык                                     : Russian
    Default                                  : Нет
    Forced                                   : Нет

    Текст #3
    Идентификатор                            : 8
    Формат                                   : UTF-8
    Идентификатор кодека                     : S_TEXT/UTF8
    Идентификатор кодека/Информация          : UTF-8 Plain Text
    Заголовок                                : Russian (Notabenoid)
    Язык                                     : Russian
    Default                                  : Нет
    Forced                                   : Нет

    Текст #4
    Идентификатор                            : 9
    Формат                                   : UTF-8
    Идентификатор кодека                     : S_TEXT/UTF8
    Идентификатор кодека/Информация          : UTF-8 Plain Text
    Заголовок                                : English
    Язык                                     : English
    Default                                  : Нет
    Forced                                   : Нет

    Меню
    00:00:00.000                             : en:00:00:00.000
    00:06:59.600                             : en:00:06:59.600
    00:18:45.000                             : en:00:18:45.000
    00:24:32.600                             : en:00:24:32.600
    00:30:13.160                             : en:00:30:13.160
    00:38:31.040                             : en:00:38:31.040
    00:45:58.440                             : en:00:45:58.440
    00:54:19.320                             : en:00:54:19.320
    01:01:59.080                             : en:01:01:59.080
    01:08:49.600                             : en:01:08:49.600
    01:19:13.800                             : en:01:19:13.800
    01:24:46.400                             : en:01:24:46.400

    Скриншоты:

    Релиз подготовлен специально для Piratbit.net. by Ворон
    pb.wtf



  • Скачать Спасение через торрент http://s019.radikal.ru/i601/1505/23/c685917bf663.png Скачать фильм Спасение через торрент бесплантно в хорошем качестве Описание:Джон, фермер, чья семья убита, дает клятву отомстить, выслеживает и наказывает убийцу. Его действия запускают цепочку насилия: ... 10 10 7
    Info! Золотая раздача, скачанное не засчитывается.
    Торрент: Зарегистрирован [2015-05-29 23:43] · скачан: 95 раз
    Статус: √ проверено
    Размер: 13.4 GB
    Как cкачать? Как скачать Спасение через торрент | qTorrent

    % Раздел Тема Автор DL S | L
    Фильмы [HD 720p, 1080p] (Хороший звук DUB, MVO) [ 7.55 GB ] Спасение / The Salvation [2014 BDRip 1080p Профессиональное [Студия Jaskier] от R.G. HD-Films Ворон Скачать
    1 | 0
    Фильмы с авторской озвучкой [ 7.51 GB ] Спасение / The Salvation [2014 BDRip 1080p AVO [Алексей Матвеев aka Doctor Joker] от R.G. HD-Films Ворон Скачать
    1 | 0

    28-11-2019 20:33  

    Отключить всю рекламу на сайте

    30-05-2015 13:32 Спасение Скачать торрент  

    Ворон, классно что дубляж, но как быть с размером?
    Винт то не резиновый;)
    Сгондобишь гектаров на 5?
    •Спасибо•pb.wtf



    30-05-2015 21:19 Спасение Скачать торрент  

    w.a.s.p. писал(а):

    Сгондобишь

    sarcastic Я такими вещами не занимаюсь ибо не знаю даже что это.....
    Фильм смотрел давно учитывая что сейчас вестернов не снимают практически, а я их очень люблю..эта картина вполне достойная для разового просмотра.pb.wtf



    31-05-2015 00:11 Спасение Скачать торрент  

    Ворон писал(а):

    w.a.s.p. писал(а):

    Сгондобишь

    sarcastic Я такими вещами не занимаюсь ибо не знаю даже что это.....
    Фильм смотрел давно учитывая что сейчас вестернов не снимают практически, а я их очень люблю..эта картина вполне достойная для разового просмотра.

    ------------------------------------------
    Сгондобить/гондобить дает четкий черноземный регион; после города число примеров (в скобках — изданий):
    Воронеж 6 (3)
    Волгоград 5 (2)
    Тамбов и область 4 (3)
    Липецк 2 (2)

    На сгондобить еще по одному примеру из прессы Екатеринбурга, Златоуста, Оренбурга, Новосибирска, Барнаула; для региона и редко рассеяно, и маловато.
    На гондобить — еще один пример из Ставрополя.

    Значение расплывчатое; ближе всего к «соорудить»; но сгондобить можно борщ и чаёк, а в промышленных условиях — макароны.

    И вот руководители таких "стройотрядов" сами гондобят поблизости броские особняки, а их прорабы гребут зарплату в тысячах "зеленых"
    (Волгоградская правда; 23.05.2001).

    У боковой стены дома кто-то из жильцов сгондобил незамысловатое крыльцо, прорубив отдельный ход
    (Липецкие известия; 20.07.2005).

    И вот как-то в конце мая пошла я в душ — отчим приспособил под него железную бочку с нагревателем от электрочайника, сгондобил из шифера кабинку
    (Воронежская неделя; 19.04.2006).

    Ухитрялся подрабатывать на "параллельных" работах, "гондобил" всякие полезные вещи и себе, и людям
    (Волгоградская правда; 05.04.2001).

    То на лекарства деньги нужны, то хоть окорочок купить, чтоб какой-никакой борщ сгондобить
    (Берег, Воронеж; 20.12.2002).

    Теперь самое время сгондобить чаёк
    (Тамбовская жизнь; 17.02.2006).

    Животноводство разрушено, хлеб и макароны из такой пшеницы не сгондобишь
    (Уездная жизнь, Никифоровский р-н, Тамбовская область; 19.04.2006).
    ----------------------------
    это наше выражение, ну в смысле наших областей
    спасибо за то что файлик сгондобил pb.wtf



      Дорогой пользователь! Огромная просьба, поблагодарите релизера, оцените раздачу и оставьте свои комментарий, если Вы скачали Спасение через торрент бесплатно! Внесите свою лепту в развитие PiratBit!
      Комментировать посты могут только пользователи прошедшие не сложную регистрацию
      Показать сообщения:    

      Спасение через торрент
      Скачать бесплатно Спасение
      Спасение скачать торрент
      Спасение смотреть онлайн
      Cкачать фильм Спасение бесплатно
      Спасение скачать торрент в хорошем качестве
      Спасение смотреть онлайн бесплатно в хорошем качестве


      Вы не можете начинать темы
      Вы не можете отвечать на сообщения
      Вы не можете редактировать свои сообщения
      Вы не можете удалять свои сообщения
      Вы не можете голосовать в опросах
      Вы не можете прикреплять файлы к сообщениям
      Вы можете скачивать файлы