Ссылка на приватное зеркало нашего сайта всего за 1$. Внимание количество ограничено!!!

2 сезон

iTunes

1 сезон

1

2 сезон

2 сезон

iTunes

1 сезон

RePack

30

Ultimate

ВАЖНО

ИГРА 18+

pack

RePack

MK11
pack

Забери бонус

RePack

jed

!!Акция!!

Alien_Rage

RePack

fifa19

RePack

Assassins Creed: Odyssey

RePack

NEED FOR SPEED™ PAYBACK

4 сезон

9 сезон

Бесстыжие 9 сезон

Все сериалы

все сериалы на PB.wtf

RePack

FAR CRY 5
  

Водолей / Aquarius / Сезон: 1 / Серии 1-13 из 13 (Джонас Пейт / Jonas Pate, Майкл Цинберг / Michael Zinberg, Джон Эмиел / Jon Amiel) [2015, США, драма, криминал, WEB-DL 1080p, MVO] [NewStudio] pb.wtf

Водолей через торрент pb.wtf

Размер: 22.16 GB | Добавлен: 5 лет 5 мес. назад | Торрент скачан:87 раз
Скачать  

30-05-2015 02:05 Водолей Скачать торрент  

Водолей / Aquarius
«His case of the week became the case of a generation»


  • Год выпуска: 2015
  • Страна: США
  • Жанр: драма, криминал
  • Продолжительность: 00:42:56 (Серия)
  • Перевод: Профессиональный многоголосый закадровый) [NewStudio]

  • Режиссер: Джонас Пейт / Jonas Pate, Майкл Цинберг / Michael Zinberg, Джон Эмиел / Jon Amiel
  • В ролях:

    Дэвид Духовны (Sam Hodiak), Клер Холт (Charmain Tully), Эмма Дюмон (Emma Karn), Грэй Дэймон (Brian Shafe), Чэнс Келли (Detective Ed Cutler), Карл Конти (Morty), Михаэлла МакМанус (Grace Karn), Тара Барр (Katrina Cznyk), Дэвид Мюнье (Roy Kovic), Уитни Роуз Пинн (Minnie), Джейсон Ральф (Mike Vickery), Крис Шеффилд (Walt Hodiak)

  • Описание:
    Сюжет сериала основан на реальной истории организации «Семья» руководимой Чарльзом Мэнсоном. События фильма начинают развиваться в 1967-м году. Полицейскому Сэму поручают расследовать похищение дочери известного адвоката. Он обращается за помощью к своему коллеге, работающему под прикрытием в среде подростков-хиппи. Вместе они выходят на Чарльза Мэнсона, собравшего на своем ранчо группу «детей», среди которых он пропагандирует культуру хиппи, наркотики и групповой секс. Через два года череда зверских убийств, совершенных приспешниками Мэнсона, заставит содрогнуться от ужаса всю Америку.
  • Рейтинг:



  • Качество: WEB-DL 1080p
  • Формат: :MKV
  • Видео кодек: AVC
  • Аудио кодек: AC3
  • Видео: 1912x1072 (16:9), 4909 kbps, 23,976 fps, 0,100 bpp
  • Аудио №1: русский / 5.1 / 48 kHz / 384 kbps / 16 bit
  • Аудио №2: английский / 5.1 / 48 kHz / 384 kbps / 16 bit
  • Релиз от: GEKADOL

    Код:

    Внимание! Раздача ведётся путём добавления новых серий; при каждом добавлении создаётся новый торрент. Чтобы начать докачку новой серии, пользователям необходимо сделать следующее:
    (1) остановить скачивание,
    (2) удалить старый торрент у себя из клиента (старые серии удалять не надо),
    (3) скачать новый торрент и запустить его у себя в клиенте вместо старого, при этом указать клиенту путь в старую папку куда и должно происходить скачивание новых серий.
    Ваш клиент при этом должен произвести хеширование (проверку) старой папки (если не производит сам - помогите ему сделать это), и будет докачивать только те серии которых у вас ещё нет. Старые серии при этом не удаляются, а продолжают раздаваться!
    Eсли вы уже удалили старые серии, то предотвратить повторную закачку старых серий можно, отжав галочку в соответствующих местах при запуске нового торрента. По возможности, желательно не удалять старые серии как можно дольше чтобы релизёр не столько продолжал раздавать старые серии, а смог сконцентрироваться на новых.


    Код:

    General
    Unique ID                                : 229332001572682319223465074194326772494 (0xAC87BCA5B5574453922BB7EAC6885B0E)
    Complete name                            : F:\Aquarius.s01.1080p.WEBDL.NewStudio\Aquarius.s01e03.1080p.WEBDL.NewStudio.TV.mkv
    Format                                   : Matroska
    Format version                           : Version 4 / Version 2
    File size                                : 1.74 GiB
    Duration                                 : 42mn 56s
    Overall bit rate                         : 5 793 Kbps
    Encoded date                             : UTC 2015-05-30 00:31:22
    Writing application                      : mkvmerge v7.4.0 ('Circles') 32bit built on Dec 12 2014 12:10:09
    Writing library                          : libebml v1.3.0 + libmatroska v1.4.1
    _STATISTICS_WRITING_APP                  : mkvmerge v7.4.0 ('Circles') 32bit built on Dec 12 2014 12:10:09
    _STATISTICS_WRITING_DATE_UTC             : 2015-05-30 00:31:22
    _STATISTICS_TAGS                         : BPS DURATION NUMBER_OF_FRAMES NUMBER_OF_BYTES
    DURATION                                 : 00:42:56.512000000
    NUMBER_OF_FRAMES                         : 80516
    NUMBER_OF_BYTES                          : 123672576

    Video
    ID                                       : 1
    Format                                   : AVC
    Format/Info                              : Advanced Video Codec
    Format profile                           : High@L4.0
    Format settings, CABAC                   : Yes
    Format settings, ReFrames                : 4 frames
    Codec ID                                 : V_MPEG4/ISO/AVC
    Duration                                 : 42mn 56s
    Bit rate                                 : 4 910 Kbps
    Width                                    : 1 912 pixels
    Height                                   : 1 072 pixels
    Display aspect ratio                     : 16:9
    Frame rate                               : 23.976 fps
    Color space                              : YUV
    Chroma subsampling                       : 4:2:0
    Bit depth                                : 8 bits
    Scan type                                : Progressive
    Bits/(Pixel*Frame)                       : 0.100
    Stream size                              : 1.47 GiB (85%)
    Language                                 : English
    Default                                  : Yes
    Forced                                   : No
    Color primaries                          : BT.709-5, BT.1361, IEC 61966-2-4, SMPTE RP177
    Transfer characteristics                 : BT.709-5, BT.1361
    Matrix coefficients                      : BT.709-5, BT.1361, IEC 61966-2-4 709, SMPTE RP177

    Audio #1
    ID                                       : 2
    Format                                   : AC-3
    Format/Info                              : Audio Coding 3
    Mode extension                           : CM (complete main)
    Codec ID                                 : A_AC3
    Duration                                 : 42mn 56s
    Bit rate mode                            : Constant
    Bit rate                                 : 384 Kbps
    Channel(s)                               : 6 channels
    Channel positions                        : Front: L C R, Side: L R, LFE
    Sampling rate                            : 48.0 KHz
    Bit depth                                : 16 bits
    Compression mode                         : Lossy
    Stream size                              : 118 MiB (7%)
    Title                                    : NewStudio.TV
    Language                                 : Russian
    Default                                  : Yes
    Forced                                   : No

    Audio #2
    ID                                       : 3
    Format                                   : AC-3
    Format/Info                              : Audio Coding 3
    Mode extension                           : CM (complete main)
    Codec ID                                 : A_AC3
    Duration                                 : 42mn 56s
    Bit rate mode                            : Constant
    Bit rate                                 : 384 Kbps
    Channel(s)                               : 6 channels
    Channel positions                        : Front: L C R, Side: L R, LFE
    Sampling rate                            : 48.0 KHz
    Bit depth                                : 16 bits
    Compression mode                         : Lossy
    Stream size                              : 118 MiB (7%)
    Language                                 : English
    Default                                  : No
    Forced                                   : No




    Скриншоты:
    скриншот   скриншот   скриншот   скриншот   скриншот  
    скриншот  

    Раздача ведётся путём добавления новых серий. Добавлена 13 серия (02.06.2015).Просьба перекачать торрент файл.

    pb.wtf



  • Скачать Водолей через торрент http://i1.imageban.ru/out/2015/05/30/10e9c17bb723a9894c6a304544d8eb43.png Скачать фильм Водолей через торрент бесплантно в хорошем качестве Описание: Сюжет сериала основан на реальной истории организации «Семья» руководимой Чарльзом Мэнсоном. События фильма начинают развиваться ... 9.9 10 8
    Info! Золотая раздача, скачанное не засчитывается.
    Торрент: Зарегистрирован [2015-06-02 03:17] · скачан: 87 раз
    Статус: √ проверено
    Размер: 22.16 GB
    Как cкачать? Как скачать Водолей через торрент | qTorrent

    % Раздел Тема Автор DL S | L
    Зарубежные сериалы [ 10.93 GB ] Водолей / Aquarius / Сезон: 2 / Серии 1-13 из 13 [2016 WEB-DLRip-AVC MVO] [NewStudio] GEKADOL Скачать
    1 | 1
    Зарубежные сериалы [ 6.48 GB ] Водолей / Aquarius / Сезон: 1 / Серии 1-13 из 13 [2015 WEB-DLRip MVO] [NewStudio] GEKADOL Скачать
    1 | 0
    Зарубежные сериалы [ 18.62 GB ] Водолей / Aquarius / Сезон: 1 / серии 1-13 из 13 [2015 WEB-DL 720p][NewStudio] Хайзенберг Скачать
    1 | 0


    Последний раз редактировалось: GEKADOL (2015-06-02 03:16), всего редактировалось 1 раз

    28-11-2019 20:33  

    Отключить всю рекламу на сайте

    31-05-2015 16:27 Водолей Скачать торрент  

    и как оно?pb.wtf



    02-06-2015 14:47 Водолей Скачать торрент  

    Вроде не плохой, но начинают уже бесить зарубежные сериалы. Обязательным явлением в них стала 3,14дерестия. Начиная со Спартака, продолжая Играми Престолов, Черепом с костями, Черными парусами, Грошовыми ужасами и т.д.pb.wtf



      Дорогой пользователь! Огромная просьба, поблагодарите релизера, оцените раздачу и оставьте свои комментарий, если Вы скачали Водолей через торрент бесплатно! Внесите свою лепту в развитие PiratBit!
      Комментировать посты могут только пользователи прошедшие не сложную регистрацию
      Показать сообщения:    

      Водолей через торрент
      Скачать бесплатно Водолей
      Водолей скачать торрент
      Водолей смотреть онлайн
      Cкачать фильм Водолей бесплатно
      Водолей скачать торрент в хорошем качестве
      Водолей смотреть онлайн бесплатно в хорошем качестве


      Вы не можете начинать темы
      Вы не можете отвечать на сообщения
      Вы не можете редактировать свои сообщения
      Вы не можете удалять свои сообщения
      Вы не можете голосовать в опросах
      Вы не можете прикреплять файлы к сообщениям
      Вы можете скачивать файлы