Ссылка на приватное зеркало всего за 1$. Внимание количество ограничено!!!

iTunes

iTunes

iTunes

1

iTunes

iTunes

iTunes

iTunes

iTunes

30
pack

$ от Little Big

ВАЖНО

!!Акция!!

Alien_RageХит недели

RePack

Resident Evil 21

ИГРА 18+

pack

RePack

jed

!!Акция!!

Alien_Rage

RePack

fifa19

RePack

Assassins Creed: Odyssey

RePack

NEED FOR SPEED™ PAYBACK

4 сезон

9 сезон

Бесстыжие 9 сезон

Все сериалы

все сериалы на PB.wtf

RePack

FAR CRY 5
  

Дорога на Берлин (Сергей Попов) [2015, Россия, военный, драма, BDRip) (Лицензия) pb.wtf

Дорога на Берлин через торрент pb.wtf

Размер: 1.46 GB | Добавлен: 5 лет назад | Торрент скачан:2865 раз
Скачать  

30-05-2015 03:14 Дорога на Берлин Скачать торрент  

Дорога на Берлин
«Когда дороги не выбирают»


  • Год выпуска: 2015
  • Страна: Россия
  • Жанр: военный, драма
  • Продолжительность: 01:25:48
  • Перевод: Не требуется (Лицензия)

  • Режиссер: Сергей Попов
  • В ролях:

    Юрий Борисов (Огарков), Амир Абдыкалыков (Джурбаев), Максим Демченко (Синяев), Мария Карпова (Мария), Екатерина Агеева (Светлана), Валерий Ненашев (председатель трибунала), Сергей Веселов (член трибунала), Филипп Савинков (ординарец Синяева), Игорь Хрипунов (Хромов), Игорь Бровин (член трибунала), Сергей Власов (комендант), Роберт Вааб (полковник Воскресенский)

  • Описание:
    Действие фильма происходит в Великую Отечественную войну. Главные герои - лейтенант Огарков и рядовой Джурабаев - молодые люди, выходцы из разных союзных республик, разные по характеру и жизненным позициям, но объединенные общей целью. В основе фильма лежат их сложные отношения и поступки, продиктованные фоном страшных событий войны. Это история о человеческих взаимоотношениях, истинных нравственных ценностях, долге перед Родиной, близкими и самим собой.
  • Рейтинг:



  • Качество: BDRip
  • Формат: :AVI
  • Видео кодек: XviD
  • Аудио кодек: AC3
  • Видео: 720x384 (1.875), 1978 kbps, 23,976 fps, 0,298 bpp
  • Аудио: 5.1 / 48 kHz / 448 kbps / 16 bit
  • Релиз от: GEKADOL

    Код:

    General
    Complete name                            : F:\Doroga.Na.Berlin.2014.O.2015.BDRip.avi
    Format                                   : AVI
    Format/Info                              : Audio Video Interleave
    File size                                : 1.46 GiB
    Duration                                 : 1h 25mn
    Overall bit rate                         : 2 435 Kbps
    Writing application                      : VirtualDubMod 1.5.10.3 | www.virtualdub-fr.org || (build 2550/release)
    Writing library                          : VirtualDubMod build 2550/release

    Video
    ID                                       : 0
    Format                                   : MPEG-4 Visual
    Format profile                           : Advanced Simple@L5
    Format settings, BVOP                    : 1
    Format settings, QPel                    : No
    Format settings, GMC                     : No warppoints
    Format settings, Matrix                  : Custom
    Codec ID                                 : XVID
    Codec ID/Hint                            : XviD
    Duration                                 : 1h 25mn
    Bit rate                                 : 1 978 Kbps
    Width                                    : 720 pixels
    Height                                   : 384 pixels
    Display aspect ratio                     : 1.875
    Frame rate                               : 23.976 fps
    Color space                              : YUV
    Chroma subsampling                       : 4:2:0
    Bit depth                                : 8 bits
    Scan type                                : Progressive
    Compression mode                         : Lossy
    Bits/(Pixel*Frame)                       : 0.298
    Stream size                              : 1.19 GiB (81%)
    Writing library                          : XviD 73

    Audio
    ID                                       : 1
    Format                                   : AC-3
    Format/Info                              : Audio Coding 3
    Mode extension                           : CM (complete main)
    Codec ID                                 : 2000
    Duration                                 : 1h 25mn
    Bit rate mode                            : Constant
    Bit rate                                 : 448 Kbps
    Channel(s)                               : 6 channels
    Channel positions                        : Front: L C R, Side: L R, LFE
    Sampling rate                            : 48.0 KHz
    Bit depth                                : 16 bits
    Compression mode                         : Lossy
    Stream size                              : 275 MiB (18%)
    Alignment                                : Split accross interleaves
    Interleave, duration                     : 42 ms (1.00 video frame)
    Interleave, preload duration             : 500 ms




    Скриншоты:



    pb.wtf



  • Скачать Дорога на Берлин через торрент http://i4.imageban.ru/out/2015/05/30/4fd7ad7b1735e8573dceb5d456fd15fb.jpg Скачать фильм Дорога на Берлин через торрент бесплантно в хорошем качестве Описание: Действие фильма происходит в Великую Отечественную войну. Главные герои - лейтенант Огарков и рядовой Джурабаев - молодые люди, ... 9.8 10 48
    Info! Золотая раздача, скачанное не засчитывается.
    Торрент: Зарегистрирован [2015-05-30 03:14] · скачан: 2 865 раз
    Статус: √ проверено
    Размер: 1.46 GB
    Как cкачать? Как скачать Дорога на Берлин через торрент | qTorrent

    % Раздел Тема Автор DL S | L
    Отечественная Поп музыка (mp3) [ 162 MB ] Леонид Утёсов - Дорога на Берлин. Выпуск 2 2012 / MP3 / 320 kbps / Советская эстрада Retro megatoxa Скачать
    1 | 0
    Наши фильмы (HD, WEB-DL 720p, 1080p) [ 7.2 GB ] Дорога на Берлин [2015 военный BDRip 1080p] Original Seedtank Скачать
    1 | 0
    Наши фильмы (Blu-ray, BD-Remux, HDDVD) [ 13.98 GB ] Дорога на Берлин [2015 военный BD Remux] Ворон Скачать
    1 | 0

    28-11-2019 20:33  

    Отключить всю рекламу на сайте

    30-05-2015 05:35 Дорога на Берлин Скачать торрент  

    Дрянь блин. За чем было первоисточник перевирать тем более к 70летию победы.pb.wtf



    30-05-2015 22:56 Дорога на Берлин Скачать торрент  

    А мне фильм очень понравился,автору спасибо.pb.wtf



    31-05-2015 09:11 Дорога на Берлин Скачать торрент  

    ttam... может для тебя фильм дрянь.а ты бывал в таких ситуациях как в фильме.Я В ПОХОЖИХ БЫВАЛ В 80 ГОДАХ.ТАК ВОТ ПОСМОТРЕЛ И НЕ ЗВИЗДИ ЧТО ФИЛЬМ ДРЯНЬ.ФИЛЬМ СУПЕР. :film: :shoot2: yespb.wtf



    31-05-2015 17:57 Дорога на Берлин Скачать торрент  

    klim88 писал(а):

    ttam... может для тебя фильм дрянь.а ты бывал в таких ситуациях как в фильме.Я В ПОХОЖИХ БЫВАЛ В 80 ГОДАХ.ТАК ВОТ ПОСМОТРЕЛ И НЕ ЗВИЗДИ ЧТО ФИЛЬМ ДРЯНЬ.ФИЛЬМ СУПЕР. :film: :shoot2: yes

    Фильм дрянь. Есть первоисточник и уже отснятый по нему фильм, а затем выходит это. События книги переврали и это уже хреново.
    И .... ты что серьёзно сравнил некие события 80х с ВОВ? От скромности не помрёшь.pb.wtf



    01-06-2015 08:13 Дорога на Берлин Скачать торрент  

    Отличный фильм! И снят отлично!pb.wtf



    12-07-2015 14:30 Дорога на Берлин Скачать торрент  

    Че это за танк на втором скрине? (из какого же металлолома это дерьмо собрали:)))) Режиссер лучше бы перед созданием картины в книжки заглянул и посмотрел какие машины в то время воевали:) Уже ржу!:))) Видать фильм будет таким же унылым как и второй скрин:)))pb.wtf



      Дорогой пользователь! Огромная просьба, поблагодарите релизера, оцените раздачу и оставьте свои комментарий, если Вы скачали Дорога на Берлин через торрент бесплатно! Внесите свою лепту в развитие PiratBit!
      Комментировать посты могут только пользователи прошедшие не сложную регистрацию
      Показать сообщения:    

      Дорога на Берлин через торрент
      Скачать бесплатно Дорога на Берлин
      Дорога на Берлин скачать торрент
      Дорога на Берлин смотреть онлайн
      Cкачать фильм Дорога на Берлин бесплатно
      Дорога на Берлин скачать торрент в хорошем качестве
      Дорога на Берлин смотреть онлайн бесплатно в хорошем качестве


      Вы не можете начинать темы
      Вы не можете отвечать на сообщения
      Вы не можете редактировать свои сообщения
      Вы не можете удалять свои сообщения
      Вы не можете голосовать в опросах
      Вы не можете прикреплять файлы к сообщениям
      Вы можете скачивать файлы