Ссылка на приватное зеркало нашего сайта всего за 1$. Внимание количество ограничено!!!

2 сезон

iTunes

1 сезон

1

iTunes

iTunes

iTunes

1 сезон

RePack

30

ИГРА 18+

pack

ВАЖНО

!!Акция!!

Alien_RageХит недели

RePack

MK11
pack

Забери бонус

RePack

jed

!!Акция!!

Alien_Rage

RePack

fifa19

RePack

Assassins Creed: Odyssey

RePack

NEED FOR SPEED™ PAYBACK

4 сезон

9 сезон

Бесстыжие 9 сезон

Все сериалы

все сериалы на PB.wtf

RePack

FAR CRY 5
  

Мёртвые земли / The Dead Lands (Тоа Фрейзер ) [2014, боевик, приключения, BDRip 1080p, Профессиональный многоголосый [BaibaKo] от R.G. HD-Films pb.wtf

Мёртвые земли через торрент pb.wtf

Размер: 6.95 GB | Добавлен: 5 лет 4 мес. назад | Торрент скачан:409 раз
Скачать  

30-05-2015 05:24 Мёртвые земли Скачать торрент  


Мёртвые земли / The Dead Lands
«Where the warrior spirit was born»

ИНФОРМАЦИЯ:
Год выпуска:2014
Страна: Новая Зеландия, Великобритания
Жанр: боевик, приключения
Продолжительность: 01:47:32
Перевод: Профессиональный многоголосый [BaibaKo]
Субтитры: русские,
Режиссер: Тоа Фрейзер

В Ролях:


Джеймс Роллестон (Hongi), Лоуренс Макор (The Warrior), Te Kohe Tuhaka (Wirepa), Ксавьер Хоран (Rangi), Raukura Turei (Mehe), Джордж Хинар (Tane), Рина Оуэн (Grandmother), Пена Хема Тейлор (Mana), Calvin Tuteao (Ka), Jamus Webster (Tahi), Бьянка Хислоп (Pipi), Isabella Rakete (Keri)

Описание:
Действие происходит в доколониальной Новой Зеландии. Молодой сын вождя племени стремится отомстить убийцам своей семьи, изучая древние боевые искусства племени Маори при помощи легендарного воина.

  • Мировая премьера:4 сентября 2014

    ТЕХ.ДАННЫЕ:
    Качество: BDRip 1080p
    Формат: MKV
    Видео кодек: AVC
    Аудио кодек: AC3
    Видео: AVC, 1920x808 (2.40:1), 8671 kbps, 23,976 fps, 0,233 bpp
    Аудио №1: русский / AC3 / 5.1 / 48 kHz / 384 kbps / 16 bit || Профессиональный многоголосый [BaibaKo]
    Аудио №2: русский / AC3 / 2.0 / 48 kHz / 192 kbps / 16 bit || Любительский двухголосый (Coldfilm)
    Навигация по главам: есть



    Код:

    General
    Unique ID                                : 192564197876692370535235121225765443357 (0x90DE83F733E0D382848600FD3E23571D)
    Complete name                            : D:\Торенты\HD\Mertvye zemli 2014 BDRip 1080p.Release for Piratbit.neR.G. HD-Films .mkv
    Format                                   : Matroska
    Format version                           : Version 4 / Version 2
    File size                                : 6.95 GiB
    Duration                                 : 1h 47mn
    Overall bit rate                         : 9 248 Kbps
    Movie name                               : Release for Piratbit.net_R.G. HD-Films
    Encoded date                             : UTC 2015-05-30 05:11:56
    Writing application                      : mkvmerge v6.7.0 ('Back to the Ground') 64bit built on Jan  8 2014 15:10:52
    Writing library                          : libebml v1.3.0 + libmatroska v1.4.1
    Attachment                               : Yes / Yes

    Video
    ID                                       : 1
    Format                                   : AVC
    Format/Info                              : Advanced Video Codec
    Format profile                           : High@L4.1
    Format settings, CABAC                   : Yes
    Format settings, ReFrames                : 5 frames
    Codec ID                                 : V_MPEG4/ISO/AVC
    Duration                                 : 1h 47mn
    Bit rate                                 : 8 671 Kbps
    Width                                    : 1 920 pixels
    Height                                   : 808 pixels
    Display aspect ratio                     : 2.40:1
    Frame rate                               : 23.976 fps
    Color space                              : YUV
    Chroma subsampling                       : 4:2:0
    Bit depth                                : 8 bits
    Scan type                                : Progressive
    Bits/(Pixel*Frame)                       : 0.233
    Stream size                              : 6.38 GiB (92%)
    Title                                    : Release for Piratbit.net_R.G. HD-Films
    Writing library                          : x264 core 146 r2538 121396c
    Encoding settings                        : cabac=1 / ref=5 / deblock=1:0:0 / analyse=0x3:0x113 / me=umh / subme=8 / psy=1 / psy_rd=1.00:0.00 / mixed_ref=1 / me_range=16 / chroma_me=1 / trellis=1 / 8x8dct=1 / cqm=0 / deadzone=21,11 / fast_pskip=0 / chroma_qp_offset=-2 / threads=12 / lookahead_threads=2 / sliced_threads=0 / nr=0 / decimate=1 / interlaced=0 / bluray_compat=0 / constrained_intra=0 / bframes=3 / b_pyramid=2 / b_adapt=2 / b_bias=0 / direct=3 / weightb=1 / open_gop=0 / weightp=2 / keyint=250 / keyint_min=23 / scenecut=40 / intra_refresh=0 / rc_lookahead=50 / rc=2pass / mbtree=1 / bitrate=8671 / ratetol=1.0 / qcomp=0.60 / qpmin=0 / qpmax=69 / qpstep=4 / cplxblur=20.0 / qblur=0.5 / ip_ratio=1.40 / aq=1:1.00
    Language                                 : Russian
    Default                                  : No
    Forced                                   : No

    Audio #1
    ID                                       : 2
    Format                                   : AC-3
    Format/Info                              : Audio Coding 3
    Mode extension                           : CM (complete main)
    Codec ID                                 : A_AC3
    Duration                                 : 1h 47mn
    Bit rate mode                            : Constant
    Bit rate                                 : 384 Kbps
    Channel(s)                               : 6 channels
    Channel positions                        : Front: L C R, Side: L R, LFE
    Sampling rate                            : 48.0 KHz
    Bit depth                                : 16 bits
    Compression mode                         : Lossy
    Stream size                              : 295 MiB (4%)
    Title                                    : Профессиональный многоголосый- BaibaK
    Language                                 : Russian
    Default                                  : Yes
    Forced                                   : Yes

    Audio #2
    ID                                       : 3
    Format                                   : AC-3
    Format/Info                              : Audio Coding 3
    Mode extension                           : CM (complete main)
    Codec ID                                 : A_AC3
    Duration                                 : 1h 47mn
    Bit rate mode                            : Constant
    Bit rate                                 : 192 Kbps
    Channel(s)                               : 2 channels
    Channel positions                        : Front: L R
    Sampling rate                            : 48.0 KHz
    Bit depth                                : 16 bits
    Compression mode                         : Lossy
    Stream size                              : 148 MiB (2%)
    Title                                    : DVO [Coldfilm]
    Language                                 : Russian
    Default                                  : No
    Forced                                   : No

    Text
    ID                                       : 4
    Format                                   : UTF-8
    Codec ID                                 : S_TEXT/UTF8
    Codec ID/Info                            : UTF-8 Plain Text
    Language                                 : Russian
    Default                                  : No
    Forced                                   : No

    Menu
    00:00:00.000                             : en:00:00:00.000
    00:10:01.684                             : en:00:10:01.684
    00:20:01.992                             : en:00:20:01.992
    00:28:17.279                             : en:00:28:17.279
    00:36:24.057                             : en:00:36:24.057
    00:45:04.827                             : en:00:45:04.827
    00:53:35.671                             : en:00:53:35.671
    01:04:01.379                             : en:01:04:01.379
    01:16:31.462                             : en:01:16:31.462
    01:20:56.560                             : en:01:20:56.560
    01:28:42.484                             : en:01:28:42.484
    01:38:30.988                             : en:01:38:30.988

    Скриншоты:


    Релиз подготовлен специально для Piratbit.net. Работа со звуком by Ворон
    pb.wtf



  • Скачать Мёртвые земли через торрент http://s020.radikal.ru/i705/1505/13/2aff3e5cea83.png Скачать фильм Мёртвые земли через торрент бесплантно в хорошем качестве Описание: Действие происходит в доколониальной Новой Зеландии. Молодой сын вождя племени стремится отомстить убийцам своей семьи, изучая ... 9.4 10 14
    Info! Золотая раздача, скачанное не засчитывается.
    Торрент: Зарегистрирован [2015-05-30 05:24] · скачан: 409 раз
    Статус: T временная
    Размер: 6.95 GB
    Как cкачать? Как скачать Мёртвые земли через торрент | qTorrent

    28-11-2019 20:33  

    Отключить всю рекламу на сайте

      Дорогой пользователь! Огромная просьба, поблагодарите релизера, оцените раздачу и оставьте свои комментарий, если Вы скачали Мёртвые земли через торрент бесплатно! Внесите свою лепту в развитие PiratBit!
      Комментировать посты могут только пользователи прошедшие не сложную регистрацию
      Показать сообщения:    

      Мёртвые земли через торрент
      Скачать бесплатно Мёртвые земли
      Мёртвые земли скачать торрент
      Мёртвые земли смотреть онлайн
      Cкачать фильм Мёртвые земли бесплатно
      Мёртвые земли скачать торрент в хорошем качестве
      Мёртвые земли смотреть онлайн бесплатно в хорошем качестве


      Вы не можете начинать темы
      Вы не можете отвечать на сообщения
      Вы не можете редактировать свои сообщения
      Вы не можете удалять свои сообщения
      Вы не можете голосовать в опросах
      Вы не можете прикреплять файлы к сообщениям
      Вы можете скачивать файлы