Ссылка на приватное зеркало нашего сайта всего за 1$. Внимание количество ограничено!!!

2 сезон

iTunes

1 сезон

1

iTunes

iTunes

iTunes

1 сезон

RePack

30

ИГРА 18+

pack

ВАЖНО

!!Акция!!

Alien_RageХит недели

RePack

MK11
pack

Забери бонус

RePack

jed

!!Акция!!

Alien_Rage

RePack

fifa19

RePack

Assassins Creed: Odyssey

RePack

NEED FOR SPEED™ PAYBACK

4 сезон

9 сезон

Бесстыжие 9 сезон

Все сериалы

все сериалы на PB.wtf

RePack

FAR CRY 5
  

Суперкоманда / Metegol (Хуан Хосе Кампанелла ) [2013, мультфильм, приключения, семейный, HDRip] DUB Лицензия pb.wtf

Суперкоманда через торрент pb.wtf

Размер: 1.46 GB | Добавлен: 5 лет 4 мес. назад | Торрент скачан:1363 раза
Скачать  

30-05-2015 07:11 Суперкоманда Скачать торрент  

Суперкоманда / Metegol


Год выпуска: 2013
Страна: Испания, Аргентина
Жанр: мультфильм, приключения, семейный, спорт
Продолжительность: 01:46:38
Перевод: Дубляж - [Лицензия]
Режиссер: Хуан Хосе Кампанелла
В ролях:

Гэбриел Альмирон (Malparitti II, озвучка), Федерико Чичери (Cordobés, озвучка), Эсекиэль Сиполс (Malparitti I, озвучка), Лучана Фалькон (Joven Amadeo, озвучка), Горацио Фонтова (Loco, озвучка), Фабиан Джианола (Beto, озвучка), Роберто Ким (Coreano, озвучка), Лусия Масьель (Laura, озвучка), Давид Масахник (Amadeo, озвучка), Маркос Мандсток (Ermitaño, озвучка), Мариана Отенро (Joven Grosso, озвучка), Алехандро Пиар (Milton, озвучка)
Описание:
Чтобы спасти родной город от сноса и не потерять лица в глазах любимой, Амадео вынужден сразиться со своим заклятым врагом Эйсом на спортивном поле. Но как победить лучшую футбольную команду в мире, если ты умеешь играть только в настольный футбол? Конечно, с большой помощью суперкоманды оживших маленьких игроков! Не пасуй перед трудностями! Забей... и выиграй!

Качество: HDRip
Формат: AVI
Видео кодек: XviD
Аудио кодек:AC3
Видео: XviD, 720x304 (2.35:1), 1561 kbps, 23,976 fps, 0,298 bpp
Аудио: AC3 / 5.1 / 48 kHz / 384 kbps / 16 bit
Сэмпл

Код:

General
Complete name                            : D:\Загрузка\Sypercomanda.2013.D.HDRip.1.46GB.avi
Format                                   : AVI
Format/Info                              : Audio Video Interleave
File size                                : 1.46 GiB
Duration                                 : 1h 46mn
Overall bit rate                         : 1 955 Kbps
Writing application                      : VirtualDubMod 1.5.10.3 | www.virtualdub-fr.org || (build 2550/release)
Writing library                          : VirtualDubMod build 2550/release

Video
ID                                       : 0
Format                                   : MPEG-4 Visual
Format profile                           : Advanced Simple@L5
Format settings, BVOP                    : 2
Format settings, QPel                    : No
Format settings, GMC                     : No warppoints
Format settings, Matrix                  : Default (MPEG)
Codec ID                                 : XVID
Codec ID/Hint                            : XviD
Duration                                 : 1h 46mn
Bit rate                                 : 1 562 Kbps
Width                                    : 720 pixels
Height                                   : 304 pixels
Display aspect ratio                     : 2.35:1
Frame rate                               : 23.976 fps
Color space                              : YUV
Chroma subsampling                       : 4:2:0
Bit depth                                : 8 bits
Scan type                                : Progressive
Compression mode                         : Lossy
Bits/(Pixel*Frame)                       : 0.298
Stream size                              : 1.16 GiB (80%)
Writing library                          : XviD 1.2.1 (UTC 2008-12-04)

Audio
ID                                       : 1
Format                                   : AC-3
Format/Info                              : Audio Coding 3
Mode extension                           : CM (complete main)
Codec ID                                 : 2000
Duration                                 : 1h 46mn
Bit rate mode                            : Constant
Bit rate                                 : 384 Kbps
Channel(s)                               : 6 channels
Channel positions                        : Front: L C R, Side: L R, LFE
Sampling rate                            : 48.0 KHz
Bit depth                                : 16 bits
Compression mode                         : Lossy
Stream size                              : 293 MiB (20%)
Alignment                                : Split accross interleaves
Interleave, duration                     : 42 ms (1.00 video frame)
Interleave, preload duration             : 500 ms

Скриншоты:


© Оформление by Серёжк@pb.wtf



Скачать Суперкоманда через торрент http://i2.imageban.ru/out/2015/05/30/4ba89ad31528b87257edca963932239c.jpg Скачать фильм Суперкоманда через торрент бесплантно в хорошем качестве Описание: Чтобы спасти родной город от сноса и не потерять лица в глазах любимой, Амадео вынужден сразиться со своим заклятым врагом Эйсом ... 9.6 10 34
Торрент: Зарегистрирован [2015-05-30 07:11] · скачан: 1 363 раз
Статус: √ проверено
Размер: 1.46 GB
Как cкачать? Как скачать Суперкоманда через торрент | qTorrent

28-11-2019 20:33  

Отключить всю рекламу на сайте

30-05-2015 09:26 Суперкоманда Скачать торрент  

Заценим )pb.wtf



30-05-2015 13:12 Суперкоманда Скачать торрент  

ещё как заценим сие творениеpb.wtf



    Дорогой пользователь! Огромная просьба, поблагодарите релизера, оцените раздачу и оставьте свои комментарий, если Вы скачали Суперкоманда через торрент бесплатно! Внесите свою лепту в развитие PiratBit!
    Комментировать посты могут только пользователи прошедшие не сложную регистрацию
    Показать сообщения:    

    Суперкоманда через торрент
    Скачать бесплатно Суперкоманда
    Суперкоманда скачать торрент
    Суперкоманда смотреть онлайн
    Cкачать фильм Суперкоманда бесплатно
    Суперкоманда скачать торрент в хорошем качестве
    Суперкоманда смотреть онлайн бесплатно в хорошем качестве


    Вы не можете начинать темы
    Вы не можете отвечать на сообщения
    Вы не можете редактировать свои сообщения
    Вы не можете удалять свои сообщения
    Вы не можете голосовать в опросах
    Вы не можете прикреплять файлы к сообщениям
    Вы можете скачивать файлы