Достать ножи: Стеклянная луковица

MVO

Добыча

Дубляж

Уэнсдэй

1 сезон

Тор

Дубляж

13 клиническая

1 сезон

Жестокая ночь

MVO

Одни из нас

1 сезон

Deluxe

pack

Рекомендуем

30

Пиратка

ВАЖНО

ВАЖНО

Ghostwire

Пиратка

jed

RePack

nioh2

RePack

RDR2

RePack

NEED FOR SPEED™ PAYBACK

RePack

скачать торрент

Кинопоиск HD

Острые козырьки 6 сезон

6 сезон

FAR CRY 6

RePack

скачать торрент

Лицензия

скачать торрент

MVO

1

1 сезон

скачать торрент

1 сезон

скачать торрент

Лицензия

  

Michael Schenker - Rock Hard Festival [2015 г., Hard Rock, HDTVRip 720p]

Michael Schenker - Rock Hard Festival через торрент pb.wtf

Размер: 3.03 GB | Добавлен: 7 лет 8 мес. назад | Торрент скачан:18 раз
| Скачать | Поддержите нас   

30-05-2015 08:44 Michael Schenker - Rock Hard Festival Скачать торрент  


Michael Schenker - Rock Hard Festival


Год выпуска: 2015 г.
Страна: Germany
Жанр: Hard Rock
Продолжительность: 01:09:18

Michael Schenker Group (сокращённо M.S.G.; в 1986—1992 годы группа называлась McAuley Schenker Group) — это основанная бывшим соло-гитаристом групп Scorpions и UFO Михаэлем Шенкером. Стилистику группы можно определить как классический хард-рок с упором на его мелодическую составляющую.

Качество видео: HDTVRip
Контейнер: MKV
Стандарт разрешения: 720p
Видео кодек: MPEG4 AVC
Аудио кодек: AC3
Видео: 1280 x 720, 5746 kbps, 23,401 fps, 0.266 bit/pic
Аудио: AC - 3, 384 kbps, 6 ch, 48,0 kHz

01. Doctor Doctor
02. Live And Let Live
03. Lights Out
04. Where The Wild Winds Blow
05. Natural Thing
06. Victim Of Illusion
07. Lovedrive
08. Coast To Coast
09. Vigilante Man
10. Before The Devil Knows You're Dead
11. Lord Of The Lost And Lonely
12. Rock You Like A Hurricane
13. Rock Bottom

скриншот  скриншот  скриншот  скриншот  

Код:

Общее
Уникальный идентификатор                 : 168348648403719580577546155723716462494 (0x7EA6C532C2870C1E037BA147C20E879E)
Полное имя                               : D:\Torrent files\Michael Schenker - Rock Hard Festival [2015]\Michael Schenker - Rock Hard Festival [2015].mkv
Формат                                   : Matroska
Версия формата                           : Version 2
Размер файла                             : 3,03 Гбайт
Продолжительность                        : 1 ч. 9 м.
Режим общего битрейта                    : Переменный
Общий поток                              : 6254 Кбит/сек
Программа кодирования                    : Lavf51.12.1
Библиотека кодирования                   : Lavf51.12.1

Видео
Идентификатор                            : 1
Формат                                   : AVC
Формат/Информация                        : Advanced Video Codec
Профиль формата                          : [email protected]
Параметр CABAC формата                   : Нет
Параметр ReFrames формата                : 1 кадр
Параметр GOP формата                     : M=1, N=12
Идентификатор кодека                     : V_MPEG4/ISO/AVC
Продолжительность                        : 1 ч. 9 м.
Вид битрейта                             : Переменный
Битрейт                                  : 5746 Кбит/сек
Максимальный битрейт                     : 4500 Кбит/сек
Ширина                                   : 1280 пикселей
Высота                                   : 720 пикселей
Соотношение сторон                       : 16:9
Режим частоты кадров                     : Постоянный
Частота кадров                           : 23,401 кадра/сек
Частота кадров в оригинале               : 24,000 кадра/сек
Цветовое пространство                    : YUV
Субдискретизация насыщенности            : 4:2:0
Битовая глубина                          : 8 бит
Тип развёртки                            : Прогрессивная
Бит/(Пиксели*Кадры)                      : 0.266
Размер потока                            : 2,78 Гбайт (92%)
Default                                  : Да
Forced                                   : Нет

Аудио
Идентификатор                            : 2
Формат                                   : AC-3
Формат/Информация                        : Audio Coding 3
Расширение режима                        : CM (complete main)
Параметр Endianness формата              : Big
Идентификатор кодека                     : A_AC3
Продолжительность                        : 1 ч. 9 м.
Вид битрейта                             : Постоянный
Битрейт                                  : 384 Кбит/сек
Каналы                                   : 6 каналов
Расположение каналов                     : Front: L C R, Side: L R, LFE
Частота                                  : 48,0 КГц
Битовая глубина                          : 16 бит
Метод сжатия                             : С потерями
Размер потока                            : 190 Мбайт (6%)
Default                                  : Да
Forced                                   : Нет



Не забываем говорить



Скачать Michael Schenker - Rock Hard Festival через торрент http://i69.fastpic.ru/big/2015/0530/6b/dd9aeb55a863e4ba4e2292ec30dfb16b.gif Скачать, смотреть онлайн Michael Schenker - Rock Hard Festival [2015 г., Hard Rock, HDTVRip 720p] бесплантно в хорошем качестве Трэклист Doctor Doctor Live And Let Live Lights Out Where The Wild Winds Blow Natural Thing Victim Of Illusion ... 9 10 3
Info! Золотая раздача, скачанное не засчитывается.
Торрент: Зарегистрирован [2015-05-30 08:44] · скачан: 18 раз
Статус: √ проверено
Размер: 3.03 GB
Как cкачать? Как скачать Michael Schenker - Rock Hard Festival через торрент | UTorrent

28-11-2019 20:33  


Отключить вcю реклaмy на сайте, в т.ч. и в плеере онлайн просмотра!

    Дорогой пользователь! Огромная просьба, поблагодарите релизера, оцените раздачу и оставьте свои комментарий, если Вы скачали Michael Schenker - Rock Hard Festival через торрент бесплатно!!
    Комментировать посты могут только пользователи прошедшие не сложную регистрацию
    Показать сообщения:    


    Michael Schenker - Rock Hard Festival через торрент
    Скачать бесплатно Michael Schenker - Rock Hard Festival
    Michael Schenker - Rock Hard Festival скачать торрент
    Michael Schenker - Rock Hard Festival смотреть онлайн
    Cкачать фильм Michael Schenker - Rock Hard Festival бесплатно
    Michael Schenker - Rock Hard Festival скачать торрент в хорошем качестве
    Michael Schenker - Rock Hard Festival смотреть онлайн бесплатно в хорошем качестве
    Вы не можете начинать темы
    Вы не можете отвечать на сообщения
    Вы не можете редактировать свои сообщения
    Вы не можете удалять свои сообщения
    Вы не можете голосовать в опросах
    Вы не можете прикреплять файлы к сообщениям
    Вы можете скачивать файлы
    Michael Schenker - Rock Hard Festival [2015 г., Hard Rock, HDTVRip 720p] смотреть онлайн, скачать торрент picoco.icu