Marvel's Avengers Deluxe Edition (супер цена) 159р. Внимание количество ограничено!!!

2 сезон

iTunes

iTunes

1

iTunes

iTunes

iTunes

WEBRip

iTunes

30
pack

Новость дня

ВАЖНО

!!Акция!!

Alien_RageХит недели

RePack

Horizon Zero Dawn

ИГРА 18+

pack

RePack

jed

!!Акция!!

Alien_Rage

RePack

fifa19

RePack

Assassins Creed: Odyssey

RePack

NEED FOR SPEED™ PAYBACK

4 сезон

9 сезон

Бесстыжие 9 сезон

Все сериалы

все сериалы на PB.wtf

RePack

FAR CRY 5
  

Опасное погружение / Pressure (Рон Скальпелло) [2015 г., триллер, WEB-DLRip, Дубляж "iTunes"] pb.wtf

Опасное погружение через торрент pb.wtf

Размер: 710 MB | Добавлен: 5 лет 3 мес. назад | Торрент скачан:1398 раз
Скачать  

30-05-2015 18:25 Опасное погружение Скачать торрент  

Опасное погружение / Pressure
Год выпуска: 2015
Страна: Великобритания / Bigscope Films
Жанр: триллер
Продолжительность: 01:31:14
Перевод: Дубляж (iTunes)

Режиссер: Рон Скальпелло

IMDB 7.80 (26)


В ролях: Дэнни Хьюстон, Мэттью Гуд, Джо Коул, Алан МакКенна, Йен Пири, Дэйзи Лоу, Гемита Самарра, Ричард Битта

Описание: Маленькая капсула с четырьмя водолазами застряла на дне восточноафриканских вод на глубине пяти километров. Кислорода с каждым вдохом становится все меньше, а надежда на чудесное спасение тает с каждой минутой. Брошенным на произвол судьбы, им ничего не остается, кроме как попытаться спастись своими силами, полагаясь лишь на собственную храбрость и отчаянное желание выжить.

Качество: WEB-DLRip
Формат: AVI
Видео кодек: XviD
Аудио кодек: MP3
Видео: 640x344 (1.86:1), 24.000 fps, XviD build 50 ~950 kbps avg, 0.18 bit/pixel
Аудио: 48 kHz, MPEG Layer 3, 2 ch, ~128.00 kbps avg


Общее
Полное имя : F:\кино\Опасное погружение.2015.WEB-DLRip.avi
Формат : AVI
Формат/Информация : Audio Video Interleave
Размер файла : 710 Мбайт
Продолжительность : 1 ч. 31 м.
Общий поток : 1088 Кбит/сек
Программа кодирования : VirtualDubMod 1.5.10.3 | www.virtualdub-fr.org || (build 2550/release)
Библиотека кодирования : VirtualDubMod build 2550/release

Видео
Идентификатор : 0
Формат : MPEG-4 Visual
Профиль формата : Advanced Simple@L5
Параметр BVOP формата : 2
Параметр QPel формата : Нет
Параметр GMC формата : Без точки перехода
Параметр матрицы формата : Default (H.263)
Идентификатор кодека : XVID
Идентификатор кодека/Подсказка : XviD
Продолжительность : 1 ч. 31 м.
Битрейт : 951 Кбит/сек
Ширина : 640 пикселей
Высота : 344 пикселя
Соотношение сторон : 1,85:1
Частота кадров : 24,000 кадра/сек
Цветовое пространство : YUV
Субдискретизация насыщенности : 4:2:0
Битовая глубина : 8 бит
Тип развёртки : Прогрессивная
Метод сжатия : С потерями
Бит/(Пиксели*Кадры) : 0.180
Размер потока : 620 Мбайт (87%)
Библиотека кодирования : XviD 1.2.1 (UTC 2008-12-04)

Аудио
Идентификатор : 1
Формат : MPEG Audio
Версия формата : Version 1
Профиль формата : Layer 3
Режим : Joint stereo
Идентификатор кодека : 55
Идентификатор кодека/Подсказка : MP3
Продолжительность : 1 ч. 31 м.
Вид битрейта : Постоянный
Битрейт : 128 Кбит/сек
Каналы : 2 канала
Частота : 48,0 КГц
Метод сжатия : С потерями
Размер потока : 83,5 Мбайт (12%)
Выравнивание : Соединение по промежуткам
Продолжительность промежутка : 42 мс. (1,00 видеокадр)
Время предзагрузки промежутка : 504 мс.
Библиотека кодирования : LAME3.99r
Настройки программы : -m j -V 4 -q 2 -lowpass 17 -b 128

pb.wtf



Скачать Опасное погружение через торрент http://pic1.kartinco.top/images/10/vseeh.jpg Скачать фильм Опасное погружение через торрент бесплантно в хорошем качестве Описание: Маленькая капсула с четырьмя водолазами застряла на дне восточноафриканских вод на глубине пяти километров. Кислорода с каждым ... 9.5 10 45
Info! Золотая раздача, скачанное не засчитывается.
Торрент: Зарегистрирован [2015-05-30 18:25] · скачан: 1 398 раз
Статус: √ проверено
Размер: 710 MB
Как cкачать? Как скачать Опасное погружение через торрент | qTorrent

% Раздел Тема Автор DL S | L
R.G. Resident & PiratVoice - Фильмы, Видео [ 7.46 GB ] Опасное погружение / Pressure [2015 BDRip 1080p ] schultz Скачать
1 | 0
Фильмы 2015 [DVDrip, WEB-DLRip, HDrip] [ 1.46 GB ] Опасное погружение / Pressure [2015 BDRip] - [] Twi7ter Скачать
1 | 0
Фильмы (WEB-DL 720p, 1080p) [ 3.32 GB ] Опасное погружение / Pressure [2015 WEB-DL 1080p ] GEKADOL Скачать
1 | 0
Фильмы (WEB-DL 720p, 1080p) [ 2.83 GB ] Опасное погружение / Pressure [2015 WEB-DL 720p ] GEKADOL Скачать
1 | 0
Фильмы 2015 [DVDrip, WEB-DLRip, HDrip] [ 1.46 GB ] Опасное погружение / Pressure [2015 BDRip-AVC] Dub potroks Скачать
1 | 0
Фильмы [HD 720p, 1080p] (Хороший звук DUB, MVO) [ 4.36 GB ] Опасное погружение / Pressure [2015 BDRip 720p] ] -Lexx- Скачать
1 | 0
Фильмы 2015 [DVDrip, WEB-DLRip, HDrip] [ 2.14 GB ] Опасное погружение / Pressure [2015 BDRip-AVC] Dub potroks Скачать
1 | 0

28-11-2019 20:33  

Отключить всю рекламу на сайте

31-05-2015 15:25 Опасное погружение Скачать торрент  

***** кино, ещё раз повторюсь ****** киноpb.wtf



31-05-2015 16:36 Опасное погружение Скачать торрент  

rimsdub, в школах не училась, букав ни знаю....pb.wtf



20-07-2015 17:44 Опасное погружение Скачать торрент  

rimsdub писал(а):

Охуенный кино, ещё раз повторюсь охуенный кино

вот за один твой коммент скачаю и посмотрю)так бы наверное не стал)))pb.wtf



20-07-2015 18:44 Опасное погружение Скачать торрент  

Lexus63, +1pb.wtf



20-07-2015 19:25 Опасное погружение Скачать торрент  

Интересный фильм. Стоит посмотретьpb.wtf



29-07-2015 15:26 Опасное погружение Скачать торрент  

Вообще рейтинг imdb - 5.7pb.wtf



31-07-2015 16:57 Опасное погружение Скачать торрент  

rimsdub писал(а):

интересный фильма,однако

Мне фильмы этого жанра не нравятсяpb.wtf



19-11-2015 17:35 Опасное погружение Скачать торрент  

Хм...с самого начала чувак предлагал подняться.... надо было умереть половине команды, чтобы догнать что надо подниматься. так себе фильм.pb.wtf



22-11-2015 18:31 Опасное погружение Скачать торрент  

мне фильм понравилсяpb.wtf



    Дорогой пользователь! Огромная просьба, поблагодарите релизера, оцените раздачу и оставьте свои комментарий, если Вы скачали Опасное погружение через торрент бесплатно! Внесите свою лепту в развитие PiratBit!
    Комментировать посты могут только пользователи прошедшие не сложную регистрацию
    Показать сообщения:    

    Опасное погружение через торрент
    Скачать бесплатно Опасное погружение
    Опасное погружение скачать торрент
    Опасное погружение смотреть онлайн
    Cкачать фильм Опасное погружение бесплатно
    Опасное погружение скачать торрент в хорошем качестве
    Опасное погружение смотреть онлайн бесплатно в хорошем качестве


    Вы не можете начинать темы
    Вы не можете отвечать на сообщения
    Вы не можете редактировать свои сообщения
    Вы не можете удалять свои сообщения
    Вы не можете голосовать в опросах
    Вы не можете прикреплять файлы к сообщениям
    Вы можете скачивать файлы