Ссылка на приватное зеркало всего за 1$. Внимание количество ограничено!!!

OK

1+1

iTunes

мы

OK

1

WEB-DLRip

Джокер

Пифагор

Ведьмак / The Witcher сериал

Лицензия

ПШазам

ОК

Оно 2

iTunes

30
pack

Вам бонус

ВАЖНО

!!Акция!!

Alien_RageХит недели

RePack

Resident Evil 21

ИГРА 18+

pack

RePack

jed

!!Акция!!

Alien_Rage

RePack

fifa19

RePack

Assassins Creed: Odyssey

RePack

NEED FOR SPEED™ PAYBACK

4 сезон

9 сезон

Бесстыжие 9 сезон

Все сериалы

все сериалы на PB.wtf

RePack

FAR CRY 5
  

Слендер / Always Watching: A Marble Hornets Story (Джеймс Моран) [2015 г., ужасы, WEB-DLRip, Дубляж "iTunes"] pb.wtf

Слендер через торрент pb.wtf

Размер: 708 MB | Добавлен: 4 года 7 мес. назад | Торрент скачан:525 раз
Скачать  

31-05-2015 18:19 Слендер Скачать торрент  

Слендер / Always Watching: A Marble Hornets Story
Год выпуска: 2015
Страна: США / Bellevue Productions, Mosaic
Жанр: ужасы
Продолжительность: 01:27:43
Перевод: Дубляж (iTunes)

Режиссер: Джеймс Моран

IMDB 5.40 (251)


В ролях: Крис Маркетт, Александра Брекенридж, Джейк Макдорман, Даг Джонс, Майкл Бунин, Александра Холден, Морган Е. Бастин, Блэр Бомар, Рик Отто, Шэшони Холл

Описание: Съемочная группа, готовящая сюжет про исчезнувшую семью, обнаруживает коробку кассет со свидетельствами появления Слендера — страшного существа, которое можно увидеть только через объектив видеокамеры. Посмотрев пленки, они навлекают на себя ужасное проклятье: их начинает преследовать сам Слендер, от которого не спрятаться и не скрыться.

Качество: WEB-DLRip
Формат: AVI
Видео кодек: XviD
Аудио кодек: MP3
Видео: 640x360 (1.78:1), 25 fps, XviD build 50 ~990 kbps avg, 0.17 bit/pixel
Аудио: 48 kHz, MPEG Layer 3, 2 ch, ~128.00 kbps avg

Общее
Полное имя : F:\кино\Слендер.2015.WEB-DLRip.avi
Формат : AVI
Формат/Информация : Audio Video Interleave
Размер файла : 708 Мбайт
Продолжительность : 1 ч. 27 м.
Общий поток : 1129 Кбит/сек
Программа кодирования : VirtualDubMod 1.5.10.3 | www.virtualdub-fr.org || (build 2550/release)
Библиотека кодирования : VirtualDubMod build 2550/release

Видео
Идентификатор : 0
Формат : MPEG-4 Visual
Профиль формата : Advanced Simple@L5
Параметр BVOP формата : 2
Параметр QPel формата : Нет
Параметр GMC формата : Без точки перехода
Параметр матрицы формата : Default (H.263)
Идентификатор кодека : XVID
Идентификатор кодека/Подсказка : XviD
Продолжительность : 1 ч. 27 м.
Битрейт : 991 Кбит/сек
Ширина : 640 пикселей
Высота : 360 пикселей
Соотношение сторон : 16:9
Частота кадров : 25,000 кадров/сек
Цветовое пространство : YUV
Субдискретизация насыщенности : 4:2:0
Битовая глубина : 8 бит
Тип развёртки : Прогрессивная
Метод сжатия : С потерями
Бит/(Пиксели*Кадры) : 0.172
Размер потока : 622 Мбайт (88%)
Библиотека кодирования : XviD 1.2.1 (UTC 2008-12-04)

Аудио
Идентификатор : 1
Формат : MPEG Audio
Версия формата : Version 1
Профиль формата : Layer 3
Режим : Joint stereo
Расширение режима : MS Stereo
Идентификатор кодека : 55
Идентификатор кодека/Подсказка : MP3
Продолжительность : 1 ч. 27 м.
Вид битрейта : Постоянный
Битрейт : 128 Кбит/сек
Каналы : 2 канала
Частота : 48,0 КГц
Метод сжатия : С потерями
Размер потока : 80,3 Мбайт (11%)
Выравнивание : Соединение по промежуткам
Продолжительность промежутка : 40 мс. (1,00 видеокадр)
Время предзагрузки промежутка : 504 мс.
Библиотека кодирования : LAME3.99r
Настройки программы : -m j -V 4 -q 2 -lowpass 17 -b 128

pb.wtf



Скачать Слендер через торрент http://pic1.kartinco.top/images/10/oewyv.jpg Скачать фильм Слендер через торрент бесплантно в хорошем качестве Описание: Съемочная группа, готовящая сюжет про исчезнувшую семью, обнаруживает коробку кассет со свидетельствами появления Слендера — ... 7.4 10 17
Торрент: Зарегистрирован [2015-05-31 18:19] · скачан: 525 раз
Статус: √ проверено
Размер: 708 MB
Как cкачать? Как скачать Слендер через торрент | qTorrent

% Раздел Тема Автор DL S | L
Фильмы 2015 [DVDrip, WEB-DLRip, HDrip] [ 1.42 GB ] Слендер / Always Watching: A Marble Hornets Story [2015 BDRip] Dub Twi7ter Скачать
1 | 0
Фильмы [HD 720p, 1080p] (Хороший звук DUB, MVO) [ 7.46 GB ] Слендер / Always Watching: A Marble Hornets Story [2015 BDRip 1080p - Ворон Скачать
1 | 0
Фильмы (WEB-DL 720p, 1080p) [ 3.32 GB ] Слендер / Always Watching: A Marble Hornets Story [2015 WEB-DL 1080p - / ] Ворон Скачать
1 | 0
Фильмы 2015 [DVDrip, WEB-DLRip, HDrip] [ 1.37 GB ] Слендер / Always Watching: A Marble Hornets Story [2015 WEB-DLRip - / ] Ворон Скачать
1 | 0
Фильмы (WEB-DL 720p, 1080p) [ 2.72 GB ] Слендер / Always Watching: A Marble Hornets Story [2015 WEB-DL 720p - / ] Ворон Скачать
1 | 0

28-11-2019 20:33  

Отключить всю рекламу на сайте

    Дорогой пользователь! Огромная просьба, поблагодарите релизера, оцените раздачу и оставьте свои комментарий, если Вы скачали Слендер через торрент бесплатно! Внесите свою лепту в развитие PiratBit!
    Комментировать посты могут только пользователи прошедшие не сложную регистрацию
    Показать сообщения:    

    Слендер через торрент
    Скачать бесплатно Слендер
    Слендер скачать торрент
    Слендер смотреть онлайн
    Cкачать фильм Слендер бесплатно
    Слендер скачать торрент в хорошем качестве
    Слендер смотреть онлайн бесплатно в хорошем качестве


    Вы не можете начинать темы
    Вы не можете отвечать на сообщения
    Вы не можете редактировать свои сообщения
    Вы не можете удалять свои сообщения
    Вы не можете голосовать в опросах
    Вы не можете прикреплять файлы к сообщениям
    Вы можете скачивать файлы