Ссылка на приватное зеркало всего за 1$. Внимание количество ограничено!!!

OK

1+1

iTunes

мы

OK

1

WEB-DLRip

Джокер

Пифагор

Ведьмак / The Witcher сериал

Лицензия

ПШазам

ОК

Оно 2

iTunes

30
pack

Вам бонус

ВАЖНО

!!Акция!!

Alien_RageХит недели

RePack

Resident Evil 21

ИГРА 18+

pack

RePack

jed

RePack

fifa19

RePack

Assassins Creed: Odyssey

RePack

NEED FOR SPEED™ PAYBACK

4 сезон

9 сезон

Бесстыжие 9 сезон

Все сериалы

все сериалы на PB.wtf

RePack

FAR CRY 5
  

Святой Винсент / St. Vincent (Тед Мелфи) [2014, драма, комедия, HDRip] DVO [ColdFilm] pb.wtf

Святой Винсент через торрент pb.wtf

Раздают: 1 [ 0 KB/s ]
Размер: 1.37 GB | Добавлен: 4 года 7 мес. назад | Торрент скачан:564 раза
Скачать  

01-06-2015 06:48 Святой Винсент Скачать торрент  


Святой Винсент
St. Vincent«Love Thy Neighbor»


Год выпуска: 2014
Страна: США
Жанр: драма, комедия
Продолжительность: 01:42:55
Перевод: Любительский (двухголосый закадровый) [ColdFilm]

Режиссер: Тед Мелфи
Сценарий: Тед Мелфи
Продюсер: Питер Чернин, Тед Мелфи, Фред Роос, ...
Оператор: Джон Линдли
Композитор: Теодор Шапиро
Художник: Инбал Вейнберг, Майкл Ахерн, Кася Валицка-Мэймон, ...
Монтаж: Сара Флэк, Питер Тешнер
В ролях: Билл Мюррей / Bill Murray (Vincent), Джейден Либерер / Jaeden Lieberher (Oliver), Мелисса МакКарти / Melissa McCarthy (Maggie), Наоми Уоттс / Naomi Watts (Daka), Крис О’Дауд / Chris O'Dowd (Brother Geraghty), Терренс Ховард / Terrence Howard (Zucko), Кимберли Куинн / Kimberly Quinn (Nurse Ana), Ленни Венито / Lenny Venito (Coach Mitchell)

Описание: Фильм расскажет о 12-летнем мальчике, который, переживая развод своих родителей, заводит дружбу с пожилым соседом, пьющим ветераном войны, любящим азартные игры и проституток. И вот этот нелюдимый и далеко не положительный с виду человек становится наставником парнишки.




Бюджет: $13 000 000
Сборы в США: $44 137 712
Сборы в мире: + $10 699 522 = $54 837 234

Премьера (мир): 5 сентября 2014, ...




Рейтинг MPAA: Детям до 13 лет просмотр не желателен



Качество: HDRip
Формат: AVI
Видео кодек: XviD
Аудио кодеk: MP3
Видео: 720x384 (1.875:1), 23.976 fps, XviD, 1 625 Kbps
Аудио: Аудио #1: MP3, 192 Kbps, 48.0 KHz, 2 ch





Код:

General
Complete name                    : St.Vincent.2014.L2.HDRip.avi
Format                           : AVI
Format/Info                      : Audio Video Interleave
File size                        : 1.37 GiB
Duration                         : 1h 42mn
Overall bit rate                 : 1 901 Kbps
Writing application              : VirtualDubMod 1.5.10.2 (build 2540/release)
Writing library                  : VirtualDubMod build 2540/release

Video
ID                               : 0
Format                           : MPEG-4 Visual
Format profile                   : Advanced Simple@L5
Format settings, BVOP            : Yes
Format settings, QPel            : No
Format settings, GMC             : 3 warppoints
Format settings, Matrix          : Default (MPEG)
Codec ID                         : XVID
Codec ID/Hint                    : XviD
Duration                         : 1h 42mn
Bit rate                         : 1 625 Kbps
Width                            : 720 pixels
Height                           : 384 pixels
Display aspect ratio             : 1.875
Frame rate                       : 23.976 fps
Color space                      : YUV
Chroma subsampling               : 4:2:0
Bit depth                        : 8 bits
Scan type                        : Progressive
Bits/(Pixel*Frame)               : 0.245
Stream size                      : 1.17 GiB (85%)
Writing library                  : XviD 1.2.1 (UTC 2008-12-04)

Audio
ID                               : 1
Format                           : MPEG Audio
Format version                   : Version 1
Format profile                   : Layer 3
Mode                             : Joint stereo
Codec ID                         : 55
Codec ID/Hint                    : MP3
Duration                         : 1h 42mn
Bit rate mode                    : Constant
Bit rate                         : 192 Kbps
Channel(s)                       : 2 channels
Sampling rate                    : 48.0 KHz
Stream size                      : 141 MiB (10%)
Alignment                        : Aligned on interleaves
Writing library                  : LAME3.99.5

· Чтобы научиться говорить с русским акцентом Наоми Уоттс просматривала видео на портале YouTube, а также ходила в русский спа-салон, чтобы вживую услышать речь и понаблюдать за манерами людей.







pb.wtf



Скачать Святой Винсент через торрент http://i70.fastpic.ru/big/2015/0601/12/214fc50f31779eed32f9003836b92d12.png Скачать фильм Святой Винсент через торрент бесплантно в хорошем качестве Описание: Фильм расскажет о 12-летнем мальчике, который, переживая развод своих родителей, заводит дружбу с пожилым соседом, пьющим ... 9.3 10 13
Info! Золотая раздача, скачанное не засчитывается.
Торрент: Зарегистрирован [2015-06-01 06:48] · скачан: 564 раз
Статус: T временная
Размер: 1.37 GB
Как cкачать? Как скачать Святой Винсент через торрент | qTorrent

% Раздел Тема Автор DL S | L
T Фильмы 2014 (Звук TS, Cam, VO, DVO) [ 1.38 GB ] Святой Винсент / St. Vincent [2014 WEB-DLRip] VO Ворон Скачать
1 | 0
T Фильмы [HD 720p, 1080p] (Звук Cam, VO, DVO) [ 13.38 GB ] Святой Винсент / St. Vincent [2014 BDRip 1080p Любительский [datynet] Ворон Скачать
1 | 0
Фильмы с украинским озвучиванием [ 1.37 GB ] Святой Винсент / Святий Вінсент / St. Vincent [2014 WEB-DLRip] [MVO] killermax2013 Скачать
1 | 0
T Фильмы без перевода [ 1.29 GB ] Святой Винсент / St. Vincent [2014 WEBRip] [ENG] killermax2013 Скачать
1 | 0

28-11-2019 20:33  

Отключить всю рекламу на сайте

03-03-2016 18:13 Святой Винсент Скачать торрент  

Звук отстает от видео секунд на 10, невозможно смотреть...pb.wtf



03-03-2016 18:20 Святой Винсент Скачать торрент  

Ворон писал(а):

Торрент скачан:365 раз

pb.wtf



    Дорогой пользователь! Огромная просьба, поблагодарите релизера, оцените раздачу и оставьте свои комментарий, если Вы скачали Святой Винсент через торрент бесплатно! Внесите свою лепту в развитие PiratBit!
    Комментировать посты могут только пользователи прошедшие не сложную регистрацию
    Показать сообщения:    

    Святой Винсент через торрент
    Скачать бесплатно Святой Винсент
    Святой Винсент скачать торрент
    Святой Винсент смотреть онлайн
    Cкачать фильм Святой Винсент бесплатно
    Святой Винсент скачать торрент в хорошем качестве
    Святой Винсент смотреть онлайн бесплатно в хорошем качестве


    Вы не можете начинать темы
    Вы не можете отвечать на сообщения
    Вы не можете редактировать свои сообщения
    Вы не можете удалять свои сообщения
    Вы не можете голосовать в опросах
    Вы не можете прикреплять файлы к сообщениям
    Вы можете скачивать файлы