2 сезон

iTunes

MVO

1

2 сезон

iTunes

iTunes

1 сезон

RePack

30

Новинка

ВАЖНО

ИГРА 18+

pack

RePack

MK11
pack

Легкие деньги

RePack

jed

RePack

fifa19

RePack

RDR2

RePack

NEED FOR SPEED™ PAYBACK

4 сезон

9 сезон

Бесстыжие 9 сезон

Все сериалы

все сериалы на PB.wtf

RePack

FAR CRY 5

Anonymous, добрый вечер, мы не успеваем собрать деньги на оплату серверов за декабрь и январь, помогите нам пожалуйста в это трудное время. В качестве благодарности мы отключим Вам всю рекламу на сайте (укажите свой ник в строку Ваше имя)!

×
  
Magnet ссылка

Профессионал / Killer Elite (Гэри МакКендри) [2011 г., боевик, триллер, криминал, BDRip 720p, Дубляж, Лицензия] (60Fps) pb.wtf

Профессионал через торрент pb.wtf

Размер: 4.51 GB | Добавлен: 5 лет 7 мес. назад | Торрент скачан:127 раз
Скачать  

01-06-2015 11:53 Профессионал Скачать торрент  

Профессионал / Killer Elite
Год выпуска: 2011
Страна: США
Жанр: боевик, триллер, криминал
Продолжительность: 01:56:42
Перевод: Дубляж, Лицензия
Субтитры: Russian ( полные )

Режиссер: Гэри МакКендри
Продюссер: Майкл Буген, Стив Чесман, Сигуржон Сигватссон
Сценарий: Мэтт Шерринг, Ранульф Файнс

Бюджет: $70 000 000
Премьера в мире: 10 сентября 2011

IMDB 6.50 (97 014)


В ролях: Джейсон Стэйтем, Клайв Оуэн, Роберт Де Ниро, Доминик Пёрселл, Аден Янг, Ивонн Страховски, Бен Мендельсон, Адевале Акинойе-Агбаже, Дэвид Уайтели, Мэтью Нэйбл,

Роли дублировали: Владимир Зайцев, Александр Груздев, Никита Прозоровский, Илья Исаев, Александр Гаврилин

Описание: Дэнни Брайс — бывший наемный убийца международного уровня. Но спустя год спокойной жизни он получает сообщение от посредника, из которого узнает, что его бывший напарник взят в заложники арабским шейхом. Теперь Дэнни обязан убить отставных бойцов элитного спецподразделения SAS, чтобы вызволить приятеля из темницы шейха.

Качество: BDRip 720p / 60 Fps
Формат: MKV
Видео кодек: H.264
Аудио кодек: AC3
Видео: x264, 1280 x 536 (2,40:1), 5156 kbps, 60,000 fps, ( 0.125 bpp)
Аудио#1: 48.0 kHz, AC3, 6ch, 384 kbps ( Dub )
Навигация по главам: есть



скриншот   скриншот   скриншот   скриншот   скриншот   скриншот  Автор рипа: slaventi-69
Общее
Уникальный идентификатор : 247927630100183927176418122953751626240 (0xBA851FEB5CB29A5E89BE8968E3ED8200)
Полное имя : D:\Killer.Elite.(2011).720p.(60 Fps).mkv
Формат : Matroska
Версия формата : Version 4 / Version 2
Размер файла : 4,51 Гбайт
Продолжительность : 1 ч. 56 м.
Общий поток : 5542 Кбит/сек
Название фильма : Профессионал / Killer Elite (2011) BDRip 720p (60 Fps)
Дата кодирования : UTC 2015-05-30 08:55:08
Программа кодирования : mkvmerge v6.2.0 ('Promised Land') built on Apr 28 2013 12:22:01
Библиотека кодирования : libebml v1.3.0 + libmatroska v1.4.0

Видео
Идентификатор : 1
Формат : AVC
Формат/Информация : Advanced Video Codec
Профиль формата : High@L4.1
Параметр CABAC формата : Да
Параметр ReFrames формата : 4 кадра
Идентификатор кодека : V_MPEG4/ISO/AVC
Продолжительность : 1 ч. 56 м.
Битрейт : 5156 Кбит/сек
Ширина : 1280 пикселей
Высота : 536 пикселей
Соотношение сторон : 2,40:1
Режим частоты кадров : Постоянный
Частота кадров : 60,000 кадров/сек
Цветовое пространство : YUV
Субдискретизация насыщенности : 4:2:0
Битовая глубина : 8 бит
Тип развёртки : Прогрессивная
Бит/(Пиксели*Кадры) : 0.125
Размер потока : 4,11 Гбайт (91%)
Заголовок : Killer Elite (2011) BDRip 720p (60 Fps).mkv
Библиотека кодирования : x264 core 130 r2273 b3065e6
Настройки программы : cabac=1 / ref=4 / deblock=1:-3:-3 / analyse=0x3:0x113 / me=umh / subme=8 / psy=1 / psy_rd=1.00:0.00 / mixed_ref=1 / me_range=24 / chroma_me=1 / trellis=2 / 8x8dct=1 / cqm=0 / deadzone=21,11 / fast_pskip=1 / chroma_qp_offset=-2 / threads=12 / lookahead_threads=3 / sliced_threads=0 / nr=0 / decimate=1 / interlaced=0 / bluray_compat=0 / constrained_intra=0 / bframes=4 / b_pyramid=2 / b_adapt=2 / b_bias=0 / direct=3 / weightb=1 / open_gop=0 / weightp=2 / keyint=250 / keyint_min=25 / scenecut=40 / intra_refresh=0 / rc_lookahead=50 / rc=2pass / mbtree=1 / bitrate=5156 / ratetol=1.0 / qcomp=0.60 / qpmin=0 / qpmax=69 / qpstep=4 / cplxblur=20.0 / qblur=0.5 / ip_ratio=1.40 / aq=1:1.00
Язык : English
Default : Да
Forced : Нет

Аудио
Идентификатор : 2
Формат : AC-3
Формат/Информация : Audio Coding 3
Расширение режима : CM (complete main)
Параметр Endianness формата : Big
Идентификатор кодека : A_AC3
Продолжительность : 1 ч. 56 м.
Вид битрейта : Постоянный
Битрейт : 384 Кбит/сек
Каналы : 6 каналов
Расположение каналов : Front: L C R, Side: L R, LFE
Частота : 48,0 КГц
Битовая глубина : 16 бит
Метод сжатия : С потерями
Размер потока : 320 Мбайт (7%)
Заголовок : Dub
Язык : Russian
Default : Да
Forced : Нет

Текст
Идентификатор : 3
Формат : UTF-8
Идентификатор кодека : S_TEXT/UTF8
Идентификатор кодека/Информация : UTF-8 Plain Text
Язык : Russian
Default : Нет
Forced : Нет

Меню
00:00:00.000 : en:00:00:00.000
00:06:11.578 : en:00:06:11.578
00:12:40.384 : en:00:12:40.384
00:18:18.222 : en:00:18:18.222
00:24:33.388 : en:00:24:33.388
00:30:06.971 : en:00:30:06.971
00:36:41.324 : en:00:36:41.324
00:41:01.417 : en:00:41:01.417
00:46:36.293 : en:00:46:36.293
00:51:37.052 : en:00:51:37.052
00:57:32.532 : en:00:57:32.532
01:02:14.272 : en:01:02:14.272
01:07:04.895 : en:01:07:04.895
01:12:39.979 : en:01:12:39.979
01:20:23.652 : en:01:20:23.652
01:26:27.473 : en:01:26:27.473
01:32:30.628 : en:01:32:30.628
01:41:02.805 : en:01:41:02.805
01:46:07.277 : en:01:46:07.277
01:50:26.202 : en:01:50:26.202


Профессионал скачать торрент


pb.wtf



Скачать Профессионал через торрент http://pic.kartinco.top/images/11/4a4s6.jpg Скачать фильм Профессионал через торрент бесплантно в хорошем качестве Описание: Дэнни Брайс — бывший наемный убийца международного уровня. Но спустя год спокойной жизни он получает сообщение от посредника, из ... 8.8 10 6
Info! Золотая раздача, скачанное не засчитывается.
Торрент: Зарегистрирован [2015-06-01 11:53] · скачан: 127 раз
Статус: √ проверено
Размер: 4.51 GB
Как cкачать? Как скачать Профессионал через торрент | UTorrent

% Раздел Тема Автор DL S | L
Фильмы (Blu-ray, BD-Remux, HDDVD) [ 32.08 GB ] Профессионал / Killer Elite [2011 Австралия BDRemux 1080p] Dub + AVO + Original Eng + Sub Ворон Скачать
1 | 0
Фильмы 2011 [ 2.05 GB ] Профессионал / Killer Elite [2011 DVDRip лицензия] shuller Скачать
1 | 0
Фильмы (DVD фильмы) [ 7.12 GB ] Профессионал / Killer Elite [2011 Австралия DVD9] R5 voovaz Скачать
1 | 0
Фильмы 2011 [ 1.14 GB ] Профессионал / Killer Elite [2011 HDRip-AVC] DUB Eng Sub serg7628 Скачать
1 | 0
Фильмы [HD 720p, 1080p] (Хороший звук DUB, MVO) [ 5.83 GB ] Профессионал / Killer Elite [2011 BDRip ] m9sо Скачать
1 | 0
Фильмы [HD 720p, 1080p] (Хороший звук DUB, MVO) [ 8.31 GB ] Профессионал / Killer Elite [2011 BDRip 1080p] stalonе Скачать
1 | 0
Фильмы 2011 [ 1.37 GB ] Профессионал / Killer Elite [2011 HDRip] coc900 Скачать
1 | 0

28-11-2019 20:33  

Отключить всю рекламу на сайте

01-06-2015 12:08 Профессионал Скачать торрент  

Может создашь коллекционное издание со Стетхемом? :hmmmpb.wtf



01-06-2015 12:27 Профессионал Скачать торрент  

Мысль такая была, надо подумать, но если и делать - то эти фильмы туда же и войдут. Будет ли смысл людям по 2 раза качать одно и то же?pb.wtf



01-06-2015 12:36 Профессионал Скачать торрент  

slaventi-69, Что-то будут качать , что-то нет.Всегда можно при скачке отметить только нужные файлы.Суть в том что к сборникам больше и дольше проявляют внимание пользователи.pb.wtf



01-06-2015 15:18 Профессионал Скачать торрент  

Да кстати хорошая идея ! коллекцию создать.pb.wtf



    Дорогой пользователь! Огромная просьба, поблагодарите релизера, оцените раздачу и оставьте свои комментарий, если Вы скачали Профессионал через торрент бесплатно! Внесите свою лепту в развитие PiratBit!
    Комментировать посты могут только пользователи прошедшие не сложную регистрацию
    Показать сообщения:    

    Профессионал через торрент
    Скачать бесплатно Профессионал
    Профессионал скачать торрент
    Профессионал смотреть онлайн
    Cкачать фильм Профессионал бесплатно
    Профессионал скачать торрент в хорошем качестве
    Профессионал смотреть онлайн бесплатно в хорошем качестве


    Вы не можете начинать темы
    Вы не можете отвечать на сообщения
    Вы не можете редактировать свои сообщения
    Вы не можете удалять свои сообщения
    Вы не можете голосовать в опросах
    Вы не можете прикреплять файлы к сообщениям
    Вы можете скачивать файлы