2 сезон

iTunes

1 сезон

1

iTunes

iTunes

iTunes

1 сезон

RePack

30

ИГРА 18+

pack

ВАЖНО

!!Акция!!

Alien_RageХит недели

RePack

MK11
pack

Забери бонус

RePack

jed

!!Акция!!

Alien_Rage

RePack

fifa19

RePack

Assassins Creed: Odyssey

RePack

NEED FOR SPEED™ PAYBACK

4 сезон

9 сезон

Бесстыжие 9 сезон

Все сериалы

все сериалы на PB.wtf

RePack

FAR CRY 5
  

Али / Ali (Майкл Манн / Michael Mann) [2001, драма, биография, спорт, BDRip 1080p] Dub + MVO + 2xAVO (Живов, Визгунов) + DVO (Ukr) + Original + Sub (Rus, Ukr, Eng) pb.wtf

Али через торрент pb.wtf

Размер: 24.71 GB | Добавлен: 5 лет 4 мес. назад | Торрент скачан:16 раз
Скачать  

01-06-2015 13:40 Али Скачать торрент  

Али / Ali
«Ты уверен, что всё знаешь о нем!..»



Год выпуска: 2001
Страна: США
Жанр: драма, биография, спорт
Продолжительность: 02:36:40
Перевод: Дублированный [Лицензия]
Субтитры: Русские (Full), Украинские (Full), Английские (Full)



Режиссер:
  • Майкл Манн / Michael Mann
В ролях:
  • Уилл Смит, Джейми Фокс, Джон Войт, Марио Ван Пиблз, Рон Сильвер, Джеффри Райт, Майкелти Уильямсон, Джада Пинкетт Смит, Нона Гэй, Майкл Мишель, Джо Мортон, Пол Родригес
Описание: Мохаммед Али является великим героем Америки, кумиром всего мира, и в то же время, одной из самых недооцененных персон XX века. Борясь за гражданские права в родной стране в сложные, бурные годы, когда громкие политические и социальные события коренным образом меняли мировоззрения людей, Али защищал угнетенных и дарил людям новую надежду. История сделала его живой легендой, и теперь вряд ли найдется на планете хоть один человек, который не слышал гордое имя Али.



Качество: BDRip 1080p
Формат: MKV
Видео кодек: AVC
Аудио кодек: AC3 / DTS
Видео: 1914x800 (2.40:1), 23,976 fps, 16579 kbps, 0,452 bpp
Аудио №1: русский, 48 kHz, AC3, 5.1 ch, 448 kbps | Дубляж, R5
Аудио №2: русский, 48 kHz, DTS, 5.1 ch, 1510 kbps | Многоголосый закадровый, Карусель
Аудио №3: русский, 48 kHz, DTS, 5.1 ch, 1510 kbps | Одноголосый закадровый, Ю.Живов
Аудио №4: русский, 48 kHz, AC3, 5.1 ch, 384 kbps | Одноголосый закадровый, С.Визгунов
Аудио №5: украинский, 48 kHz, AC3, 2.0 ch, 192 kbps | Двухголосый закадровый
Аудио №6: английский, 48 kHz, DTS, 5.1 ch, 1510 kbps


Код:

General
Unique ID                                : 220061153688334154512212050050477123477 (0xA58E3C8E70E2361A9ECAE0963F8AE795)
Complete name                            : D:\Али (2001) BDRip 1080p.mkv
Format                                   : Matroska
Format version                           : Version 4 / Version 2
File size                                : 24.7 GiB
Duration                                 : 2h 36mn
Overall bit rate                         : 22.6 Mbps
Encoded date                             : UTC 2015-05-23 22:25:10
Writing application                      : mkvmerge v6.9.1 ('Blue Panther') 32bit built on Apr 18 2014 18:15:44
Writing library                          : libebml v1.3.0 + libmatroska v1.4.1
Attachment                               : Yes

Video
ID                                       : 1
Format                                   : AVC
Format/Info                              : Advanced Video Codec
Format profile                           : High@L4.1
Format settings, CABAC                   : Yes
Format settings, ReFrames                : 5 frames
Codec ID                                 : V_MPEG4/ISO/AVC
Duration                                 : 2h 36mn
Bit rate                                 : 16.6 Mbps
Width                                    : 1 914 pixels
Height                                   : 800 pixels
Display aspect ratio                     : 2.40:1
Original display aspect ratio            : 2.40:1
Frame rate                               : 23.976 fps
Color space                              : YUV
Chroma subsampling                       : 4:2:0
Bit depth                                : 8 bits
Scan type                                : Progressive
Bits/(Pixel*Frame)                       : 0.452
Stream size                              : 18.1 GiB (73%)
Title                                    : CRiSC
Writing library                          : x264 core 129 r2230kMod 1cffe9f
Encoding settings                        : cabac=1 / ref=5 / deblock=1:-3:-3 / analyse=0x3:0x133 / me=umh / subme=11 / psy=1 / fade_compensate=0.00 / psy_rd=1.00:0.00 / mixed_ref=1 / me_range=64 / chroma_me=1 / trellis=2 / 8x8dct=1 / cqm=0 / deadzone=21,11 / fast_pskip=0 / chroma_qp_offset=-2 / threads=12 / lookahead_threads=2 / sliced_threads=0 / nr=0 / decimate=0 / interlaced=0 / bluray_compat=0 / constrained_intra=0 / bframes=11 / b_pyramid=2 / b_adapt=2 / b_bias=0 / direct=1 / weightb=1 / open_gop=0 / weightp=2 / keyint=250 / keyint_min=23 / scenecut=40 / intra_refresh=0 / rc_lookahead=40 / rc=crf / mbtree=0 / crf=16.5000 / qcomp=0.70 / qpmin=0 / qpmax=69 / qpstep=4 / vbv_maxrate=50000 / vbv_bufsize=62500 / crf_max=0.0 / nal_hrd=none / ip_ratio=1.40 / pb_ratio=1.30 / aq=1:0.80
Language                                 : English
Default                                  : Yes
Forced                                   : No
Color primaries                          : BT.709-5, BT.1361, IEC 61966-2-4, SMPTE RP177
Transfer characteristics                 : BT.709-5, BT.1361
Matrix coefficients                      : BT.709-5, BT.1361, IEC 61966-2-4 709, SMPTE RP177

Audio #1
ID                                       : 2
Format                                   : AC-3
Format/Info                              : Audio Coding 3
Mode extension                           : CM (complete main)
Codec ID                                 : A_AC3
Duration                                 : 2h 36mn
Bit rate mode                            : Constant
Bit rate                                 : 448 Kbps
Channel(s)                               : 6 channels
Channel positions                        : Front: L C R, Side: L R, LFE
Sampling rate                            : 48.0 KHz
Bit depth                                : 16 bits
Compression mode                         : Lossy
Stream size                              : 502 MiB (2%)
Title                                    : Дубляж, R5
Language                                 : Russian
Default                                  : Yes
Forced                                   : No

Audio #2
ID                                       : 3
Format                                   : DTS
Format/Info                              : Digital Theater Systems
Codec ID                                 : A_DTS
Duration                                 : 2h 36mn
Bit rate mode                            : Constant
Bit rate                                 : 1 510 Kbps
Channel(s)                               : 6 channels
Channel positions                        : Front: L C R, Side: L R, LFE
Sampling rate                            : 48.0 KHz
Bit depth                                : 24 bits
Compression mode                         : Lossy
Stream size                              : 1.65 GiB (7%)
Title                                    : Многоголосый закадровый, Карусель
Language                                 : Russian
Default                                  : No
Forced                                   : No

Audio #3
ID                                       : 4
Format                                   : DTS
Format/Info                              : Digital Theater Systems
Codec ID                                 : A_DTS
Duration                                 : 2h 36mn
Bit rate mode                            : Constant
Bit rate                                 : 1 510 Kbps
Channel(s)                               : 6 channels
Channel positions                        : Front: L C R, Side: L R, LFE
Sampling rate                            : 48.0 KHz
Bit depth                                : 24 bits
Compression mode                         : Lossy
Stream size                              : 1.65 GiB (7%)
Title                                    : Одноголосый закадровый, Ю.Живов
Language                                 : Russian
Default                                  : No
Forced                                   : No

Audio #4
ID                                       : 5
Format                                   : AC-3
Format/Info                              : Audio Coding 3
Mode extension                           : CM (complete main)
Codec ID                                 : A_AC3
Duration                                 : 2h 36mn
Bit rate mode                            : Constant
Bit rate                                 : 384 Kbps
Channel(s)                               : 6 channels
Channel positions                        : Front: L C R, Side: L R, LFE
Sampling rate                            : 48.0 KHz
Bit depth                                : 16 bits
Compression mode                         : Lossy
Stream size                              : 430 MiB (2%)
Title                                    : Одноголосый закадровый, С.Визгунов
Language                                 : Russian
Default                                  : No
Forced                                   : No

Audio #5
ID                                       : 6
Format                                   : AC-3
Format/Info                              : Audio Coding 3
Mode extension                           : CM (complete main)
Codec ID                                 : A_AC3
Duration                                 : 2h 36mn
Bit rate mode                            : Constant
Bit rate                                 : 192 Kbps
Channel(s)                               : 2 channels
Channel positions                        : Front: L R
Sampling rate                            : 48.0 KHz
Bit depth                                : 16 bits
Compression mode                         : Lossy
Stream size                              : 215 MiB (1%)
Title                                    : Двухголосый закадровый
Language                                 : Ukrainian
Default                                  : No
Forced                                   : No

Audio #6
ID                                       : 7
Format                                   : DTS
Format/Info                              : Digital Theater Systems
Codec ID                                 : A_DTS
Duration                                 : 2h 36mn
Bit rate mode                            : Constant
Bit rate                                 : 1 510 Kbps
Channel(s)                               : 6 channels
Channel positions                        : Front: L C R, Side: L R, LFE
Sampling rate                            : 48.0 KHz
Bit depth                                : 24 bits
Compression mode                         : Lossy
Delay relative to video                  : 4ms
Stream size                              : 1.65 GiB (7%)
Title                                    : Оригинал
Language                                 : English
Default                                  : No
Forced                                   : No

Text #1
ID                                       : 8
Format                                   : UTF-8
Codec ID                                 : S_TEXT/UTF8
Codec ID/Info                            : UTF-8 Plain Text
Title                                    : Full
Language                                 : Russian
Default                                  : No
Forced                                   : No

Text #2
ID                                       : 9
Format                                   : UTF-8
Codec ID                                 : S_TEXT/UTF8
Codec ID/Info                            : UTF-8 Plain Text
Title                                    : Full
Language                                 : Ukrainian
Default                                  : No
Forced                                   : No

Text #3
ID                                       : 10
Format                                   : UTF-8
Codec ID                                 : S_TEXT/UTF8
Codec ID/Info                            : UTF-8 Plain Text
Title                                    : Full
Language                                 : English
Default                                  : No
Forced                                   : No

Menu
00:00:00.000                             : en:00:00:00.000
00:15:14.831                             : en:00:15:14.831
00:27:02.037                             : en:00:27:02.037
00:28:41.511                             : en:00:28:41.511
00:32:43.003                             : en:00:32:43.003
00:37:17.986                             : en:00:37:17.986
00:41:10.843                             : en:00:41:10.843
00:48:21.649                             : en:00:48:21.649
00:51:40.514                             : en:00:51:40.514
00:55:16.897                             : en:00:55:16.897
01:01:15.922                             : en:01:01:15.922
01:03:33.184                             : en:01:03:33.184
01:09:52.897                             : en:01:09:52.897
01:11:25.114                             : en:01:11:25.114
01:12:54.370                             : en:01:12:54.370
01:14:57.201                             : en:01:14:57.201
01:29:05.674                             : en:01:29:05.674
01:31:24.562                             : en:01:31:24.562
01:34:56.983                             : en:01:34:56.983
01:39:23.124                             : en:01:39:23.124
01:41:21.909                             : en:01:41:21.909
01:46:48.527                             : en:01:46:48.527
01:47:43.248                             : en:01:47:43.248
01:50:15.234                             : en:01:50:15.234
01:59:45.053                             : en:01:59:45.053
02:04:30.755                             : en:02:04:30.755
02:15:15.941                             : en:02:15:15.941
02:26:11.221                             : en:02:26:11.221

Бюджет фильма: $107 000 000
Премьера (мир): 11 декабря 2001
Премьера (РФ): 4 апреля 2002,
«Пирамида», «Парадиз»

Релиз на DVD: 11 ноября 2008,
«Парадиз Медиа»,
...
Данный релиз идеален для пополнения домашней коллекции BDRip'ов.
В релиз вшита русская обложка размером 520х600 пикселей (аналогичные размеры у всех обложек для данной категории), что позволяет предать визуальную красоту Ваших фильмов.
Так же релиз максимально наполнен аудио дорожками в высоком качестве и субтитрами в формате srt.
Раздача обновляемая! При выходе других авторских переводов, релиз будет обновлен!
Итак, посмотрим на примере, как будет выглядеть Ваша коллекция: скриншот  
К сожалению, далеко не все, встроенные в телевизор медиаплееры, умеют воспроизводить звук в формате "DTS".
Выходов несколько: либо скачать другую раздачу, в которой звук будет в формате "АС3", либо перекодировать из "DTS" в "АС3".
Так же можно воспроизвести фильм с Вашего персонального компьютера/ноутбука, подключенного к телевизору через провод HDMI.
Фильмы выпускаются для кинотеатров, с пропорциями 2.35:1. И в таком же виде обычно издаются на дисках.
Монитор 16:9 имеет пропорции 1.77:1 поэтому более широкоформатное кино будет отображаться с черными полосами.
Надо это просто принять, ведь так снимают многие кинокартины.
Но некоторые фильмы могут быть и на весь экран. Особенно сериалы.
В рипах обычно обрезают черные полосы, и получают разрешение 1920х800, где приблизительно 280 пикселей занимали, повторюсь, черные полосы на экране.
Пример кадра "на весь экран": скриншот  
Пример кадра "не на весь экран": скриншот  
pb.wtf



Скачать Али через торрент http://i71.fastpic.ru/big/2015/0601/34/db482c774d0a7ed5536845e91331b634.png Скачать фильм Али через торрент бесплантно в хорошем качестве Описание: Мохаммед Али является великим героем Америки, кумиром всего мира, и в то же время, одной из самых недооцененных персон XX века. ... 10 10 2
Info! Золотая раздача, скачанное не засчитывается.
Торрент: Зарегистрирован [2015-06-01 13:51] · скачан: 16 раз
Статус: √ проверено
Размер: 24.71 GB
Как cкачать? Как скачать Али через торрент | qTorrent

% Раздел Тема Автор DL S | L
Фильмы [HD 720p, 1080p] (Хороший звук DUB, MVO) [ 6.67 GB ] Алиса в стране чудес / Alice in Wonderland [2010 BDRip 720p] sleksua Скачать
1 | 0
Кино СССР [ 1.99 GB ] Калина красная / Kalina krasnaya [1973 ... DVDRip лицензия] allexx70 Скачать
1 | 0
Калифорникейшн (Californication) [ 24.91 GB ] Блудливая Калифорния / Californication jedi4 Скачать
6 | 0
Фильмы (Blu-ray, BD-Remux, HDDVD) [ 18.73 GB ] Алиса в стране чудес / Alice in Wonderland [2010 Blu-Ray Remux ] aspace Скачать
1 | 0
Фильмы [HD 720p, 1080p] (Хороший звук DUB, MVO) [ 14.3 GB ] Санктум / Sanctum [2011 ​ BDRip 1080p] diletant Скачать
1 | 0
Фильмы 2009 [ 1.36 GB ] Химера / Splice [2009 DVDRip] DUB 1.36 GB aspace Скачать
1 | 0
Старые игры [ 652 MB ] Алиса Гроза Зазеркалья / American McGee's Alice [лицензияENG/RUAction] jedi4 Скачать
1 | 0

28-11-2019 20:33  

Отключить всю рекламу на сайте

    Дорогой пользователь! Огромная просьба, поблагодарите релизера, оцените раздачу и оставьте свои комментарий, если Вы скачали Али через торрент бесплатно! Внесите свою лепту в развитие PiratBit!
    Комментировать посты могут только пользователи прошедшие не сложную регистрацию
    Показать сообщения:    

    Али через торрент
    Скачать бесплатно Али
    Али скачать торрент
    Али смотреть онлайн
    Cкачать фильм Али бесплатно
    Али скачать торрент в хорошем качестве
    Али смотреть онлайн бесплатно в хорошем качестве


    Вы не можете начинать темы
    Вы не можете отвечать на сообщения
    Вы не можете редактировать свои сообщения
    Вы не можете удалять свои сообщения
    Вы не можете голосовать в опросах
    Вы не можете прикреплять файлы к сообщениям
    Вы можете скачивать файлы