Ссылка на приватное зеркало всего за 1$. Внимание количество ограничено!!!

OK

1+1

iTunes

мы

OK

1

WEB-DLRip

Джокер

Пифагор

Ведьмак / The Witcher сериал

iTunes

ПШазам

ОК

Оно 2

iTunes

30
pack

Вам бонус

ВАЖНО

!!Акция!!

Alien_RageХит недели

RePack

Resident Evil 21

ИГРА 18+

pack

RePack

jed

RePack

fifa19

RePack

Assassins Creed: Odyssey

RePack

NEED FOR SPEED™ PAYBACK

4 сезон

9 сезон

Бесстыжие 9 сезон

Все сериалы

все сериалы на PB.wtf

RePack

FAR CRY 5
  

Робот по имени Чаппи / Chappie (Нил Бломкамп) [2015 г., фантастика, боевик, триллер, HDRip, Дубляж] pb.wtf

Робот по имени Чаппи через торрент pb.wtf

Размер: 2.19 GB | Добавлен: 4 года 7 мес. назад | Торрент скачан:638 раз
Скачать  

01-06-2015 18:23 Робот по имени Чаппи Скачать торрент  

Робот по имени Чаппи / Chappie
Год выпуска: 2015
Страна: США, Мексика, ЮАР / Columbia Pictures, Media Rights Capital, LStar Capital
Жанр: фантастика, боевик, триллер
Продолжительность: 02:00:19
Перевод: Дубляж

Режиссер: Нил Бломкамп

IMDB 7.10 (53 760)


В ролях: Шарлто Копли, Дев Патель, Ниндзя, Йоланди Фиссер, Хосе Пабло Кантильо, Хью Джекман, Сигурни Уивер, Брэндон Оре, Джонни Селема, Андерсон Купер

Описание: Чаппи — вундеркинд. Как и любой другой ребенок, он попадает под влияние своего окружения, и только его сердце и душа помогут ему найти свой путь. Но есть одна вещь, которая делает Чаппи непохожим на всех остальных: он — первый робот, способный чувствовать и думать.

Качество: HDRip
Формат: AVI
Видео кодек: XviD
Аудио кодек: AC3
Видео: 720x304 (2.37:1), 23.976 fps, XviD build 50 ~2151 kbps avg, 0.41 bit/pixel
Аудио: 48 kHz, AC3 Dolby Digital, 3/2 (L,C,R,l,r) + LFE ch, ~448 kbps

Общее
Полное имя : F:\кино\Робот по имени Чаппи.2015.HDRip.avi
Формат : AVI
Формат/Информация : Audio Video Interleave
Профиль формата : OpenDML
Размер файла : 2,19 Гбайт
Продолжительность : 2 ч. 0 м.
Общий поток : 2606 Кбит/сек
Программа кодирования : VirtualDubMod 1.5.10.3 | www.virtualdub-fr.org || (build 2550/release)
Библиотека кодирования : VirtualDubMod build 2550/release

Видео
Идентификатор : 0
Формат : MPEG-4 Visual
Профиль формата : Advanced Simple@L5
Параметр BVOP формата : 2
Параметр QPel формата : Нет
Параметр GMC формата : Без точки перехода
Параметр матрицы формата : Default (H.263)
Идентификатор кодека : XVID
Идентификатор кодека/Подсказка : XviD
Продолжительность : 2 ч. 0 м.
Битрейт : 2147 Кбит/сек
Ширина : 720 пикселей
Высота : 304 пикселя
Соотношение сторон : 2,35:1
Частота кадров : 23,976 кадра/сек
Цветовое пространство : YUV
Субдискретизация насыщенности : 4:2:0
Битовая глубина : 8 бит
Тип развёртки : Прогрессивная
Метод сжатия : С потерями
Бит/(Пиксели*Кадры) : 0.409
Размер потока : 1,80 Гбайт (82%)
Библиотека кодирования : XviD 1.2.1 (UTC 2008-12-04)

Аудио
Идентификатор : 1
Формат : AC-3
Формат/Информация : Audio Coding 3
Расширение режима : CM (complete main)
Параметр Endianness формата : Big
Идентификатор кодека : 2000
Продолжительность : 2 ч. 0 м.
Вид битрейта : Постоянный
Битрейт : 448 Кбит/сек
Каналы : 6 каналов
Расположение каналов : Front: L C R, Side: L R, LFE
Частота : 48,0 КГц
Метод сжатия : С потерями
Размер потока : 386 Мбайт (17%)
Выравнивание : Разделение по промежуткам
Продолжительность промежутка : 42 мс. (1,00 видеокадр)
Время предзагрузки промежутка : 500 мс.

pb.wtf



Скачать Робот по имени Чаппи через торрент http://pic1.kartinco.top/images/10/68vfh.jpg Скачать фильм Робот по имени Чаппи через торрент бесплантно в хорошем качестве Описание: Чаппи — вундеркинд. Как и любой другой ребенок, он попадает под влияние своего окружения, и только его сердце и душа помогут ему ... 9.9 10 17
Info! Золотая раздача, скачанное не засчитывается.
Торрент: Зарегистрирован [2015-06-01 18:23] · скачан: 638 раз
Статус: √ проверено
Размер: 2.19 GB
Как cкачать? Как скачать Робот по имени Чаппи через торрент | qTorrent

% Раздел Тема Автор DL S | L
Фильмы (Blu-ray, BD-Remux, HDDVD) [ 31.76 GB ] Робот по имени Чаппи / Chappie [2015 BDRemux 1080p] DUB + 2xAVO sheker187 Скачать
1 | 0
Ultra HD (UHD: 2K, 4K, 8K) — видео сверхвысокой чёткости [ 69.06 GB ] Робот по имени Чаппи / Chappie [2015 UHD BDRemux 2160p] DUB [] +4xAVO bober100 Скачать
1 | 0
T Фильмы (HD 720p, 1080p) (48-60 fps) [ 11.93 GB ] Робот по имени Чаппи / Chappie [2015 BDRip 720p 60fps Dub AVO Original Experimental] от R.G. HD-Films Tiberiumsun69 Скачать
5 | 0
Фильмы [HD 720p, 1080p] (Хороший звук DUB, MVO) [ 7.77 GB ] Робот по имени Чаппи / Chappie [2015 BDRip 1080p] 2xDUB () bober100 Скачать
1 | 0
Ultra HD (UHD: 2K, 4K, 8K) — видео сверхвысокой чёткости [ 56.95 GB ] Робот по имени Чаппи / Chappie [2015 UHD WEBRip 2160p ] [USA Transfer] 2xDUB+3xAVO [] bober100 Скачать
1 | 0
Фильмы с авторской озвучкой [ 1.46 GB ] Робот по имени Чаппи / Chappie [2015 HDRip] [AVO] killermax2013 Скачать
1 | 0
Фильмы [HD 720p, 1080p] (Хороший звук DUB, MVO) [ 5.99 GB ] Робот по имени Чаппи / Chappie [2015 BDRip 720p] DUB potroks Скачать
2 | 0

28-11-2019 20:33  

Отключить всю рекламу на сайте

    Дорогой пользователь! Огромная просьба, поблагодарите релизера, оцените раздачу и оставьте свои комментарий, если Вы скачали Робот по имени Чаппи через торрент бесплатно! Внесите свою лепту в развитие PiratBit!
    Комментировать посты могут только пользователи прошедшие не сложную регистрацию
    Показать сообщения:    

    Робот по имени Чаппи через торрент
    Скачать бесплатно Робот по имени Чаппи
    Робот по имени Чаппи скачать торрент
    Робот по имени Чаппи смотреть онлайн
    Cкачать фильм Робот по имени Чаппи бесплатно
    Робот по имени Чаппи скачать торрент в хорошем качестве
    Робот по имени Чаппи смотреть онлайн бесплатно в хорошем качестве


    Вы не можете начинать темы
    Вы не можете отвечать на сообщения
    Вы не можете редактировать свои сообщения
    Вы не можете удалять свои сообщения
    Вы не можете голосовать в опросах
    Вы не можете прикреплять файлы к сообщениям
    Вы можете скачивать файлы