Ссылка на приватное зеркало нашего сайта всего за 1$. Внимание количество ограничено!!!

2 сезон

iTunes

1 сезон

1

iTunes

iTunes

iTunes

1 сезон

RePack

30

ИГРА 18+

pack

ВАЖНО

!!Акция!!

Alien_RageХит недели

RePack

MK11
pack

Забери бонус

RePack

jed

!!Акция!!

Alien_Rage

RePack

fifa19

RePack

Assassins Creed: Odyssey

RePack

NEED FOR SPEED™ PAYBACK

4 сезон

9 сезон

Бесстыжие 9 сезон

Все сериалы

все сериалы на PB.wtf

RePack

FAR CRY 5
  

Возмещение ущерба / Collateral Damage (Эндрю Дэвис / Andrew Davis) [2002, боевик, триллер, драма, BDRip 1080p] Dub + MVO + DVO + 4xAVO (Рудой, Гаврилов, Володарский, Дольский) + Original + Sub (Rus, Eng) pb.wtf

Возмещение ущерба через торрент pb.wtf

Размер: 17.72 GB | Добавлен: 5 лет 4 мес. назад | Торрент скачан:15 раз
Скачать  

01-06-2015 18:27 Возмещение ущерба Скачать торрент  

Возмещение ущерба / Collateral Damage
«Удар террориста не был нацелен на него. Но возмездие будет персональным»



Год выпуска: 2002
Страна: США
Жанр: боевик, триллер, драма
Продолжительность: 01:48:48
Перевод: Дублированный [Лицензия]
Субтитры: Русские (Full), Английские (Full)



Режиссер:
  • Эндрю Дэвис / Andrew Davis
В ролях:
  • Арнольд Шварценеггер, Франческа Нери, Элиас Котеас, Клифф Кёртис, Джон Легуизамо, Джон Туртурро, Хсу Гарсиа, Тайлер Пози, Майкл Милхоун, Рик Уорси, Рэймонд Крус, Линдси Фрост
Описание: Власти, расследующие теракт, советуют Горди Брюеру не вмешиваться в это дело. Но он уже вмешался в него самым страшным образом: его жена и сын значатся в списке жертв взрыва бомбы. Брюер, пожарный из Лос-Анджелеса, полон решимости найти неуловимого террориста по кличке Эль Лобо.
Брюер знает, что Эль Лобо нанесет свой следующий удар именно здесь. Но как? Когда? И где именно? В мучительном поиске ответов на эти вопросы ясно только одно: Возмещение ущерба - это тикающая бомба постоянного напряжения.



Качество: BDRip 1080p
Формат: MKV
Видео кодек: AVC
Аудио кодек: AC3 / DTS
Видео: 1920x1080 (16:9), 23,976 fps, 15000 kbps, 0,302 bpp
Аудио №1: русский, 48 kHz, AC3, 5.1 ch, 384 kbps | Дубляж, R5
Аудио №2: русский, 48 kHz, DTS, 5.1 ch, 1510 kbps | Многоголосый закадровый, Карусель
Аудио №3: русский, 48 kHz, AC3, 2.0 ch, 192 kbps | Двухголосый закадровый, SDI Media
Аудио №4: русский, 48 kHz, DTS, 5.1 ch, 1510 kbps | Одноголосый закадровый, Е.Рудой
Аудио №5: русский, 48 kHz, DTS, 5.1 ch, 1510 kbps | Одноголосый закадровый, А.Гаврилов
Аудио №6: русский, 48 kHz, DTS, 5.1 ch, 1510 kbps | Одноголосый закадровый, Л.Володарский
Аудио №7: русский, 48 kHz, AC3, 2.0 ch, 192 kbps | Одноголосый закадровый, А.Дольский (VHS)
Аудио №8: английский, 48 kHz, DTS, 5.1 ch, 1510 kbps


Код:

General
Unique ID                                : 220904016448517379799211387763536827236 (0xA63090E61EDCB511B176D0E538761364)
Complete name                            : D:\Возмещение ущерба (2002) 1080p.mkv
Format                                   : Matroska
Format version                           : Version 4 / Version 2
File size                                : 17.7 GiB
Duration                                 : 1h 48mn
Overall bit rate                         : 23.3 Mbps
Encoded date                             : UTC 2015-05-24 09:15:23
Writing application                      : mkvmerge v6.9.1 ('Blue Panther') 32bit built on Apr 18 2014 18:15:44
Writing library                          : libebml v1.3.0 + libmatroska v1.4.1
Attachment                               : Yes

Video
ID                                       : 1
Format                                   : AVC
Format/Info                              : Advanced Video Codec
Format profile                           : High@L4.1
Format settings, CABAC                   : Yes
Format settings, ReFrames                : 4 frames
Codec ID                                 : V_MPEG4/ISO/AVC
Duration                                 : 1h 48mn
Bit rate                                 : 15.0 Mbps
Width                                    : 1 920 pixels
Height                                   : 1 080 pixels
Display aspect ratio                     : 16:9
Frame rate                               : 23.976 fps
Color space                              : YUV
Chroma subsampling                       : 4:2:0
Bit depth                                : 8 bits
Scan type                                : Progressive
Bits/(Pixel*Frame)                       : 0.302
Stream size                              : 11.0 GiB (62%)
Title                                    : SbR
Writing library                          : x264 core 146 r2538kMod 121396c
Encoding settings                        : cabac=1 / ref=4 / deblock=1:-2:-2 / analyse=0x3:0x133 / me=umh / subme=11 / psy=1 / fade_compensate=0.00 / psy_rd=1.00:0.00 / mixed_ref=1 / me_range=32 / chroma_me=1 / trellis=2 / 8x8dct=1 / cqm=0 / deadzone=21,11 / fast_pskip=0 / chroma_qp_offset=-2 / threads=12 / lookahead_threads=2 / sliced_threads=0 / nr=0 / decimate=1 / interlaced=0 / bluray_compat=0 / constrained_intra=0 / fgo=0 / bframes=8 / b_pyramid=2 / b_adapt=2 / b_bias=0 / direct=3 / weightb=1 / open_gop=0 / weightp=2 / keyint=250 / keyint_min=23 / scenecut=40 / intra_refresh=0 / rc_lookahead=60 / rc=2pass / mbtree=0 / bitrate=15000 / ratetol=1.0 / qcomp=0.65 / qpmin=0 / qpmax=69 / qpstep=4 / cplxblur=20.0 / qblur=0.5 / vbv_maxrate=62500 / vbv_bufsize=78125 / nal_hrd=none / filler=0 / ip_ratio=1.40 / pb_ratio=1.30 / aq=1:0.80
Language                                 : English
Default                                  : Yes
Forced                                   : No
Color primaries                          : BT.709-5, BT.1361, IEC 61966-2-4, SMPTE RP177
Transfer characteristics                 : BT.709-5, BT.1361
Matrix coefficients                      : BT.709-5, BT.1361, IEC 61966-2-4 709, SMPTE RP177

Audio #1
ID                                       : 2
Format                                   : AC-3
Format/Info                              : Audio Coding 3
Mode extension                           : CM (complete main)
Codec ID                                 : A_AC3
Duration                                 : 1h 48mn
Bit rate mode                            : Constant
Bit rate                                 : 384 Kbps
Channel(s)                               : 6 channels
Channel positions                        : Front: L C R, Side: L R, LFE
Sampling rate                            : 48.0 KHz
Bit depth                                : 16 bits
Compression mode                         : Lossy
Stream size                              : 299 MiB (2%)
Title                                    : Дубляж, R5
Language                                 : Russian
Default                                  : Yes
Forced                                   : No

Audio #2
ID                                       : 3
Format                                   : DTS
Format/Info                              : Digital Theater Systems
Codec ID                                 : A_DTS
Duration                                 : 1h 48mn
Bit rate mode                            : Constant
Bit rate                                 : 1 510 Kbps
Channel(s)                               : 6 channels
Channel positions                        : Front: L C R, Side: L R, LFE
Sampling rate                            : 48.0 KHz
Bit depth                                : 16 bits
Compression mode                         : Lossy
Stream size                              : 1.15 GiB (6%)
Title                                    : Многоголосый закадровый, Карусель
Language                                 : Russian
Default                                  : No
Forced                                   : No

Audio #3
ID                                       : 4
Format                                   : AC-3
Format/Info                              : Audio Coding 3
Mode extension                           : CM (complete main)
Codec ID                                 : A_AC3
Duration                                 : 1h 48mn
Bit rate mode                            : Constant
Bit rate                                 : 192 Kbps
Channel(s)                               : 2 channels
Channel positions                        : Front: L R
Sampling rate                            : 48.0 KHz
Bit depth                                : 16 bits
Compression mode                         : Lossy
Stream size                              : 149 MiB (1%)
Title                                    : Двухголосый закадровый, SDI Media
Language                                 : Russian
Default                                  : No
Forced                                   : No

Audio #4
ID                                       : 5
Format                                   : DTS
Format/Info                              : Digital Theater Systems
Codec ID                                 : A_DTS
Duration                                 : 1h 48mn
Bit rate mode                            : Constant
Bit rate                                 : 1 510 Kbps
Channel(s)                               : 6 channels
Channel positions                        : Front: L C R, Side: L R, LFE
Sampling rate                            : 48.0 KHz
Bit depth                                : 24 bits
Compression mode                         : Lossy
Stream size                              : 1.15 GiB (6%)
Title                                    : Одноголосый закадровый, Е.Рудой
Language                                 : Russian
Default                                  : No
Forced                                   : No

Audio #5
ID                                       : 6
Format                                   : DTS
Format/Info                              : Digital Theater Systems
Codec ID                                 : A_DTS
Duration                                 : 1h 48mn
Bit rate mode                            : Constant
Bit rate                                 : 1 510 Kbps
Channel(s)                               : 6 channels
Channel positions                        : Front: L C R, Side: L R, LFE
Sampling rate                            : 48.0 KHz
Bit depth                                : 24 bits
Compression mode                         : Lossy
Stream size                              : 1.15 GiB (6%)
Title                                    : Одноголосый закадровый, А.Гаврилов
Language                                 : Russian
Default                                  : No
Forced                                   : No

Audio #6
ID                                       : 7
Format                                   : DTS
Format/Info                              : Digital Theater Systems
Codec ID                                 : A_DTS
Duration                                 : 1h 48mn
Bit rate mode                            : Constant
Bit rate                                 : 1 510 Kbps
Channel(s)                               : 6 channels
Channel positions                        : Front: L C R, Side: L R, LFE
Sampling rate                            : 48.0 KHz
Bit depth                                : 24 bits
Compression mode                         : Lossy
Stream size                              : 1.15 GiB (6%)
Title                                    : Одноголосый закадровый, Л.Володарский
Language                                 : Russian
Default                                  : No
Forced                                   : No

Audio #7
ID                                       : 8
Format                                   : AC-3
Format/Info                              : Audio Coding 3
Mode extension                           : CM (complete main)
Codec ID                                 : A_AC3
Duration                                 : 1h 48mn
Bit rate mode                            : Constant
Bit rate                                 : 192 Kbps
Channel(s)                               : 2 channels
Channel positions                        : Front: L R
Sampling rate                            : 48.0 KHz
Bit depth                                : 16 bits
Compression mode                         : Lossy
Stream size                              : 149 MiB (1%)
Title                                    : Одноголосый закадровый, А.Дольский (VHS)
Language                                 : Russian
Default                                  : No
Forced                                   : No

Audio #8
ID                                       : 9
Format                                   : DTS
Format/Info                              : Digital Theater Systems
Codec ID                                 : A_DTS
Duration                                 : 1h 48mn
Bit rate mode                            : Constant
Bit rate                                 : 1 510 Kbps
Channel(s)                               : 6 channels
Channel positions                        : Front: L C R, Side: L R, LFE
Sampling rate                            : 48.0 KHz
Bit depth                                : 16 bits
Compression mode                         : Lossy
Stream size                              : 1.15 GiB (6%)
Title                                    : Оригинал
Language                                 : English
Default                                  : No
Forced                                   : No

Text #1
ID                                       : 10
Format                                   : UTF-8
Codec ID                                 : S_TEXT/UTF8
Codec ID/Info                            : UTF-8 Plain Text
Title                                    : Full (R5)
Language                                 : Russian
Default                                  : No
Forced                                   : No

Text #2
ID                                       : 11
Format                                   : UTF-8
Codec ID                                 : S_TEXT/UTF8
Codec ID/Info                            : UTF-8 Plain Text
Title                                    : Full
Language                                 : Russian
Default                                  : No
Forced                                   : No

Text #3
ID                                       : 12
Format                                   : UTF-8
Codec ID                                 : S_TEXT/UTF8
Codec ID/Info                            : UTF-8 Plain Text
Title                                    : Full
Language                                 : English
Default                                  : No
Forced                                   : No

Menu
00:00:00.000                             : en:Gordy at Work (Credits)
00:03:22.159                             : en:Gordy at Home
00:04:52.291                             : en:Plaza Explosion
00:08:11.949                             : en:"I saw him"
00:12:53.355                             : en:El Lobo
00:17:01.645                             : en:Collateral Damage
00:20:37.027                             : en:Terminated
00:24:50.447                             : en:Into Columbia
00:27:48.917                             : en:Bus Stop
00:31:27.385                             : en:In Search of a Pass
00:34:51.255                             : en:Arrested
00:37:33.458                             : en:Armstrong
00:40:51.073                             : en:Guerrilla Siege
00:45:08.914                             : en:Upriver - at gunpoint
00:48:48.300                             : en:Taste of Felix
00:52:54.629                             : en:No Room for Mistakes
00:56:56.663                             : en:Gordy's Ride
00:59:57.552                             : en:El Lobo's Compound
01:02:58.733                             : en:Surprise on the Street
01:04:40.876                             : en:Remembered Faces
01:08:43.035                             : en:No Better Than He Is
01:13:19.311                             : en:Attack on the Camp
01:17:04.036                             : en:Brandt's Excuse to Kill
01:19:38.439                             : en:Arrivals in Washington
01:23:31.673                             : en:The Target
01:27:21.027                             : en:Restroom Revelations
01:31:47.460                             : en:Through the Roof
01:34:00.593                             : en:Getting the Shaft
01:36:25.946                             : en:Tunnel of Flame
01:40:43.620                             : en:Final Battle
01:43:06.555                             : en:Survivors
01:44:34.059                             : en:End Credits

Бюджет фильма: $85 000 000
Премьера (мир): 4 февраля 2002
Премьера (РФ): 4 апреля 2002,
«Каро-Премьер»

Релиз на DVD: 17 декабря 2002,
«Premier Digital»,
...
Данный релиз идеален для пополнения домашней коллекции BDRip'ов.
В релиз вшита русская обложка размером 520х600 пикселей (аналогичные размеры у всех обложек для данной категории), что позволяет предать визуальную красоту Ваших фильмов.
Так же релиз максимально наполнен аудио дорожками в высоком качестве и субтитрами в формате srt.
Раздача обновляемая! При выходе других авторских переводов, релиз будет обновлен!
Итак, посмотрим на примере, как будет выглядеть Ваша коллекция: скриншот  
К сожалению, далеко не все, встроенные в телевизор медиаплееры, умеют воспроизводить звук в формате "DTS".
Выходов несколько: либо скачать другую раздачу, в которой звук будет в формате "АС3", либо перекодировать из "DTS" в "АС3".
Так же можно воспроизвести фильм с Вашего персонального компьютера/ноутбука, подключенного к телевизору через провод HDMI.
Фильмы выпускаются для кинотеатров, с пропорциями 2.35:1. И в таком же виде обычно издаются на дисках.
Монитор 16:9 имеет пропорции 1.77:1 поэтому более широкоформатное кино будет отображаться с черными полосами.
Надо это просто принять, ведь так снимают многие кинокартины.
Но некоторые фильмы могут быть и на весь экран. Особенно сериалы.
В рипах обычно обрезают черные полосы, и получают разрешение 1920х800, где приблизительно 280 пикселей занимали, повторюсь, черные полосы на экране.
Пример кадра "на весь экран": скриншот  
Пример кадра "не на весь экран": скриншот  
pb.wtf



Скачать Возмещение ущерба через торрент http://i72.fastpic.ru/big/2015/0601/eb/092de9a96a481210d114bc3f3d553ceb.png Скачать фильм Возмещение ущерба через торрент бесплантно в хорошем качестве Описание: Власти, расследующие теракт, советуют Горди Брюеру не вмешиваться в это дело. Но он уже вмешался в него самым страшным образом: ... 10 10 4
Info! Золотая раздача, скачанное не засчитывается.
Торрент: Зарегистрирован [2015-06-01 18:43] · скачан: 15 раз
Статус: √ проверено
Размер: 17.72 GB
Как cкачать? Как скачать Возмещение ущерба через торрент | qTorrent

% Раздел Тема Автор DL S | L
Фильмы с авторской озвучкой [ 1.46 GB ] Возмещение ущерба / Collateral Damage [2002 HDRip] AVO [Л. Володарский] Ворон Скачать
1 | 0
Фильмы 2001-2005 [ 745 MB ] Возмещение ущерба / Collateral Damage [2002 HDRip] Venxxx Скачать
1 | 0

28-11-2019 20:33  

Отключить всю рекламу на сайте

    Дорогой пользователь! Огромная просьба, поблагодарите релизера, оцените раздачу и оставьте свои комментарий, если Вы скачали Возмещение ущерба через торрент бесплатно! Внесите свою лепту в развитие PiratBit!
    Комментировать посты могут только пользователи прошедшие не сложную регистрацию
    Показать сообщения:    

    Возмещение ущерба через торрент
    Скачать бесплатно Возмещение ущерба
    Возмещение ущерба скачать торрент
    Возмещение ущерба смотреть онлайн
    Cкачать фильм Возмещение ущерба бесплатно
    Возмещение ущерба скачать торрент в хорошем качестве
    Возмещение ущерба смотреть онлайн бесплатно в хорошем качестве


    Вы не можете начинать темы
    Вы не можете отвечать на сообщения
    Вы не можете редактировать свои сообщения
    Вы не можете удалять свои сообщения
    Вы не можете голосовать в опросах
    Вы не можете прикреплять файлы к сообщениям
    Вы можете скачивать файлы