Ссылка на приватное зеркало нашего сайта всего за 1$. Внимание количество ограничено!!!

2 сезон

iTunes

1 сезон

1

2 сезон

2 сезон

iTunes

1 сезон

RePack

30

Ultimate

ВАЖНО

ИГРА 18+

pack

RePack

MK11
pack

Забери бонус

RePack

jed

!!Акция!!

Alien_Rage

RePack

fifa19

RePack

Assassins Creed: Odyssey

RePack

NEED FOR SPEED™ PAYBACK

4 сезон

9 сезон

Бесстыжие 9 сезон

Все сериалы

все сериалы на PB.wtf

RePack

FAR CRY 5
  

Хроники Лиззи Борден / Lizzie Borden Chronicles / Сезон: 1 / серии 6 из 8 (Зал Батманглидж, Тим Хантер, Нимрод Антал) [2015, Ужасы, драма, криминал, триллер, HDTVRip 720р]Любительский многоголосый[Artsound] pb.wtf

Хроники Лиззи Борден через торрент pb.wtf

Размер: 4.17 GB | Добавлен: 5 лет 6 мес. назад | Торрент скачан:42 раза
Скачать  

01-06-2015 21:09 Хроники Лиззи Борден Скачать торрент  


Хроники Лиззи Борден / Lizzie Borden Chronicles

Сезон 1, серии 6 из 8
Год выпуска: 2015
Страна: Галифакс, Новая Шотландия, Канада, США, Magic Rock Productions, Sony Pictures Television
Жанр: Триллер, детектив
Продолжительность: 6 x ~ 00:41:00

Перевод: Любительский многоголосый [Artsound]
Субтитры: нет


В ролях:
Кристина Риччи, Клеа ДюВалл, Коул Хаузер, Дилан Тейлор, Брэдли Страйкер, Оливия Ллевелин, Джефф Уинкотт, Джон Ралстон, Джесси Шрэм, Марта Ирвинг



Режиссёр:
Ховард Дойч, Стефен Т. Кэй, Расселл Малкэй




Художественный сериал «The Lizzie Borden Chronicles» является продолжением основанного на реально имевших место событиях мини-сериала «Lizzie Borden Took an Ax» того же канала Lifetime. Лиззи Борден – личность печально примечательная в криминальной истории Америки. Лиззи Борден действительно существовала. В 1892-м (ей тогда было 32), были зверски убиты топором её родной отец и мачеха. В преступлении и была обвинена женщина. Доказательств того, что именно Лиззи совершила двойное убийство, было предостаточно. Казалось бы, перспектива электрического стула прорисовывалась более, чем явственно, но её оправдали. Борден спокойно дожила до 1927 года. По сюжету сериала, после судебного процесса Лиззи возвращается в родной город. И тут среди её близких начинается просто сенокос смертей. Доказать, что в этом виновата Борден, берётся детектив Чарли Сириньо.


Качество: HDTVRip 720р
Формат: MKV
Видео кодек: AVC
Аудио кодек: AC3
Видео: 1280 x 720 (1.778) at 23.976 fps AVC at 2242 Кбит/сек
Аудио: 2 канала, 48,0 КГц AC-3 at 192 Кбит/сек

Общее
Уникальный идентификатор : 233376740009419082057095742209192383144 (0xAF92B9A61A0BF53CAA959CDD707052A8)
Полное имя : D:\Torrents\hronikylizziborden.season1.720p.artsound\the.lizzie.borden.chronicles.s01e01.720p.hdtv.x264-2hd (Artsound).mkv
Формат : Matroska
Версия формата : Version 4 / Version 2
Размер файла : 739 Мбайт
Продолжительность : 41 м.
Общий поток : 2483 Кбит/сек
Дата кодирования : UTC 2010-02-22 21:41:31
Программа кодирования : mkvmerge v5.9.0 ('On The Loose') built on Dec 9 2012 15:37:01
Библиотека кодирования : libebml v1.3.0 + libmatroska v1.4.0

Видео
Идентификатор : 1
Формат : AVC
Формат/Информация : Advanced Video Codec
Профиль формата : High@L4.1
Параметр CABAC формата : Да
Параметр ReFrames формата : 5 кадров
Режим смешивания : Header stripping
Идентификатор кодека : V_MPEG4/ISO/AVC
Продолжительность : 41 м.
Битрейт : 2242 Кбит/сек
Ширина : 1280 пикселей
Высота : 720 пикселей
Соотношение сторон : 16:9
Режим частоты кадров : Постоянный
Частота кадров : 23,976 кадра/сек
Цветовое пространство : YUV
Субдискретизация насыщенности : 4:2:0
Битовая глубина : 8 бит
Тип развёртки : Прогрессивная
Бит/(Пиксели*Кадры) : 0.101
Размер потока : 668 Мбайт (90%)
Библиотека кодирования : x264 core 146 r2538 121396c
Настройки программы : cabac=1 / ref=5 / deblock=1:0:0 / analyse=0x3:0x113 / me=umh / subme=8 / psy=1 / psy_rd=1.00:0.00 / mixed_ref=1 / me_range=16 / chroma_me=1 / trellis=1 / 8x8dct=1 / cqm=0 / deadzone=21,11 / fast_pskip=1 / chroma_qp_offset=-2 / threads=12 / lookahead_threads=2 / sliced_threads=0 / nr=0 / decimate=1 / interlaced=0 / bluray_compat=0 / constrained_intra=0 / bframes=3 / b_pyramid=2 / b_adapt=2 / b_bias=0 / direct=3 / weightb=1 / open_gop=0 / weightp=2 / keyint=250 / keyint_min=23 / scenecut=40 / intra_refresh=0 / rc_lookahead=50 / rc=crf / mbtree=1 / crf=19.0 / qcomp=0.60 / qpmin=0 / qpmax=69 / qpstep=4 / ip_ratio=1.40 / aq=1:1.00
Язык : English
Default : Да
Forced : Нет
Коэффициенты матрицы : BT.709

Аудио
Идентификатор : 2
Формат : AC-3
Формат/Информация : Audio Coding 3
Расширение режима : CM (complete main)
Параметр Endianness формата : Big
Режим смешивания : Header stripping
Идентификатор кодека : A_AC3
Продолжительность : 41 м.
Вид битрейта : Постоянный
Битрейт : 192 Кбит/сек
Каналы : 2 канала
Расположение каналов : Front: L R
Частота : 48,0 КГц
Битовая глубина : 16 бит
Метод сжатия : С потерями
Размер потока : 57,2 Мбайт (8%)
Язык : Russian
Default : Да
Forced : Да[/code]
Внимание! Раздача ведётся путём добавления новых серий; при каждом добавлении создётся новый торрент. Чтобы начать докачку новой серии, пользователям необходимо сделать следующее:
(1) остановить скачивание,
(2) удалить старый торрент у себя из клиента (старые серии удалять не надо),
(3) скачать новый торрент и запустить его у себя в клиенте вместо старого, при этом указать клиенту путь в старую папку куда и должно происходить скачивание новых серий.

Ваш клиент при этом должен произвести хеширование (проверку) старой папки (если не производит сам - помогите ему сделать это), и будет докачивать только те серии которых у вас ещё нет. Старые серии при этом не удаляются, а продолжают раздаваться!

Eсли вы уже удалили старые серии, то предотвратить повторную закачку старых серий можно, отжав галочку в соответсвующих местах при запуске нового торрента. По возможности, желательно не удалять старые серии как можно дольше чтобы релизёр не столько продолжал раздавать старые серии, а смог сконцентрироваться на новых.
pb.wtf



Скачать Хроники Лиззи Борден через торрент http://pic1.kartinco.top/images/10/xhfup.jpg Скачать фильм Хроники Лиззи Борден через торрент бесплантно в хорошем качестве В ролях:Кристина Риччи, Клеа ДюВалл, Коул Хаузер, Дилан Тейлор, Брэдли Страйкер, Оливия Ллевелин, Джефф Уинкотт, Джон Ралстон, Джесси Шрэм, ... 9.6 10 5
Info! Серебряная раздача, засчитывается только 50% скачанного.
Торрент: Зарегистрирован [2015-06-03 15:05] · скачан: 42 раз
Статус: √ проверено
Размер: 4.17 GB
Как cкачать? Как скачать Хроники Лиззи Борден через торрент | qTorrent



Последний раз редактировалось: Хайзенберг (2015-06-03 19:45), всего редактировалось 2 раз(а)

28-11-2019 20:33  

Отключить всю рекламу на сайте

03-06-2015 15:06 Хроники Лиззи Борден Скачать торрент  

Добавлена 6 серияpb.wtf



    Дорогой пользователь! Огромная просьба, поблагодарите релизера, оцените раздачу и оставьте свои комментарий, если Вы скачали Хроники Лиззи Борден через торрент бесплатно! Внесите свою лепту в развитие PiratBit!
    Комментировать посты могут только пользователи прошедшие не сложную регистрацию
    Показать сообщения:    

    Хроники Лиззи Борден через торрент
    Скачать бесплатно Хроники Лиззи Борден
    Хроники Лиззи Борден скачать торрент
    Хроники Лиззи Борден смотреть онлайн
    Cкачать фильм Хроники Лиззи Борден бесплатно
    Хроники Лиззи Борден скачать торрент в хорошем качестве
    Хроники Лиззи Борден смотреть онлайн бесплатно в хорошем качестве


    Вы не можете начинать темы
    Вы не можете отвечать на сообщения
    Вы не можете редактировать свои сообщения
    Вы не можете удалять свои сообщения
    Вы не можете голосовать в опросах
    Вы не можете прикреплять файлы к сообщениям
    Вы можете скачивать файлы