Ссылка на приватное зеркало нашего сайта всего за 1$. Внимание количество ограничено!!!

2 сезон

iTunes

1 сезон

1

iTunes

iTunes

iTunes

1 сезон

RePack

30

ИГРА 18+

pack

ВАЖНО

!!Акция!!

Alien_RageХит недели

RePack

MK11
pack

Забери бонус

RePack

jed

!!Акция!!

Alien_Rage

RePack

fifa19

RePack

Assassins Creed: Odyssey

RePack

NEED FOR SPEED™ PAYBACK

4 сезон

9 сезон

Бесстыжие 9 сезон

Все сериалы

все сериалы на PB.wtf

RePack

FAR CRY 5
  

Иногда великая идея... / Sometimes a Great Notion (Пол Ньюман) [1970, боевик, драма, приключения, BDRip 720p] MVO pb.wtf

Иногда великая идея... через торрент pb.wtf

Размер: 3.98 GB | Добавлен: 5 лет 4 мес. назад | Торрент скачан:38 раз
Скачать  

02-06-2015 08:12 Иногда великая идея... Скачать торрент  


Название: Иногда великая идея...
Оригинальное название: Sometimes a Great Notion
Год выпуска: 1970
Страна: США
Жанр: боевик, драма, приключения
Продолжительность: 01:54:35
Перевод: профессиональный многоголосый

Режиссёр: Пол Ньюман

В ролях: Пол Ньюман, Генри Фонда, Ли Ремик, Майкл Сарразин, Ричард Джэкел, Линда Лоусон, Клифф Поттс, Сэм Гилман, Ли Де Бру, Джим Берк, Рой Дженсон, Джо Маросс, Рой Пул, Чарльз Тайнер, Бенни Е. Доббинс, Алан Гиббс, Мики Гилберт, Терри Леонард, Фред Лернер, Гари МакЛарти, Хэл Нидэм, Дж.Н. Робертс, Дин Смит

Описание: В орегонских лесах на берегу великой реки Ваконды-Ауги в городке Ваконда жизнь подобна древнегреческой трагедии, без права на ошибку. Посреди слякоти осени в отчаянной гонке лесоповала, обречённой на забастовку, клан Стэмперов, записных упрямцев, бродяг и одиночек, живёт по своим законам, и нет такой силы, которая способна их сломить. Каждодневная борьба со стихией и непомерно тяжкий труд здесь обретают подлинно ветхозаветные масштабы. Обыкновенные люди вырастают до всесильных гигантов. История любви, работы, упорства и долга оборачивается величайшей притчей столетия. На этой земле полутонов - во множестве, однако не бывает полумер и ничего невозможно сделать вполсилы... Экранизация грандиознейшего романа XX века. Написал его Кен Кизи - великий американский писатель, гуру 1960-х, "веселый проказник" и "человек от земли", джек-лондоновский персонаж и глашатай новой реальности, создавший не менее гениальное произведение "Полет над гнездом кукушки".



Качество: BDRip 720p Сравнение с исходником
Формат: MKV
Видео кодек: H.264
Аудио кодек: AC3
Видео: MPEG-4 AVC, 4239 Kбит/с, 1280x546, 23,976 кадра/с
Аудио 1: русский, AC3, 448 kbps, 6 ch, 48 kHz [профессиональный многоголосый]
Аудио 2: английский, AC3, 192 kbps, 2 ch, 48 kHz [оригинал]
Субтитры: английские (для слабослышащих)
Общее
Уникальный идентификатор : 200559778245296405044443382669249979760 (0x96E268837AEBAC9DBB234D62EC85A570)
Полное имя : D:VideoИногда великая идея.1970.BDRip.720p.mkv
Формат : Matroska
Версия формата : Version 4 / Version 2
Размер файла : 3,98 Гбайт
Продолжительность : 1 ч. 54 м.
Общий поток : 4978 Кбит/сек
Название фильма : BDRip -- STarankov
Дата кодирования : UTC 2015-06-02 02:40:27
Программа кодирования : mkvmerge v7.9.0 ('Birds') 64bit
Библиотека кодирования : libebml v1.3.1 + libmatroska v1.4.2
_STATISTICS_WRITING_APP : mkvmerge v7.9.0 ('Birds') 64bit
_STATISTICS_WRITING_DATE_UTC : 2015-06-02 02:40:27
_STATISTICS_TAGS : BPS DURATION NUMBER_OF_FRAMES NUMBER_OF_BYTES
DURATION : 01:52:54.597000000
NUMBER_OF_FRAMES : 1473
NUMBER_OF_BYTES : 41383

Видео
Идентификатор : 1
Формат : AVC
Формат/Информация : Advanced Video Codec
Профиль формата : High@L4.1
Параметр CABAC формата : Да
Параметр ReFrames формата : 9 кадров
Идентификатор кодека : V_MPEG4/ISO/AVC
Продолжительность : 1 ч. 54 м.
Битрейт : 4239 Кбит/сек
Ширина : 1280 пикселей
Высота : 546 пикселей
Соотношение сторон : 2,35:1
Режим частоты кадров : Постоянный
Частота кадров : 23,976 кадра/сек
Цветовое пространство : YUV
Субдискретизация насыщенности : 4:2:0
Битовая глубина : 8 бит
Тип развёртки : Прогрессивная
Бит/(Пиксели*Кадры) : 0.253
Размер потока : 3,39 Гбайт (85%)
Библиотека кодирования : x264 core 146 r2538 121396c
Настройки программы : cabac=1 / ref=9 / deblock=1:-1:-1 / analyse=0x3:0x113 / me=umh / subme=10 / psy=1 / psy_rd=1.00:0.15 / mixed_ref=1 / me_range=32 / chroma_me=1 / trellis=2 / 8x8dct=1 / cqm=0 / deadzone=21,11 / fast_pskip=1 / chroma_qp_offset=-3 / threads=6 / lookahead_threads=1 / sliced_threads=0 / nr=0 / decimate=1 / interlaced=0 / bluray_compat=0 / constrained_intra=0 / bframes=10 / b_pyramid=2 / b_adapt=2 / b_bias=0 / direct=1 / weightb=1 / open_gop=0 / weightp=2 / keyint=230 / keyint_min=23 / scenecut=40 / intra_refresh=0 / rc_lookahead=40 / rc=crf / mbtree=0 / crf=21.0 / qcomp=0.60 / qpmin=0 / qpmax=69 / qpstep=4 / vbv_maxrate=40000 / vbv_bufsize=50000 / crf_max=0.0 / nal_hrd=none / filler=0 / ip_ratio=1.40 / pb_ratio=1.30 / aq=1:1.00
Язык : English
Default : Да
Forced : Нет
DURATION : 01:54:35.160000000
NUMBER_OF_FRAMES : 164839
NUMBER_OF_BYTES : 3727148725
_STATISTICS_WRITING_APP : mkvmerge v7.9.0 ('Birds') 64bit
_STATISTICS_WRITING_DATE_UTC : 2015-06-02 02:40:27
_STATISTICS_TAGS : BPS DURATION NUMBER_OF_FRAMES NUMBER_OF_BYTES

Аудио #1
Идентификатор : 2
Формат : AC-3
Формат/Информация : Audio Coding 3
Расширение режима : CM (complete main)
Параметр Endianness формата : Big
Идентификатор кодека : A_AC3
Продолжительность : 1 ч. 54 м.
Вид битрейта : Постоянный
Битрейт : 448 Кбит/сек
Каналы : 6 каналов
Расположение каналов : Front: L C R, Side: L R, LFE
Частота : 48,0 КГц
Битовая глубина : 16 бит
Метод сжатия : С потерями
Размер потока : 367 Мбайт (9%)
Заголовок : MVO
Язык : Russian
Default : Да
Forced : Нет

Аудио #2
Идентификатор : 3
Формат : AC-3
Формат/Информация : Audio Coding 3
Расширение режима : CM (complete main)
Параметр Endianness формата : Big
Идентификатор кодека : A_AC3
Продолжительность : 1 ч. 54 м.
Вид битрейта : Постоянный
Битрейт : 192 Кбит/сек
Каналы : 2 канала
Расположение каналов : Front: L R
Частота : 48,0 КГц
Битовая глубина : 16 бит
Метод сжатия : С потерями
Размер потока : 157 Мбайт (4%)
Заголовок : Original
Язык : English
Default : Нет
Forced : Нет

Текст
Идентификатор : 4
Формат : UTF-8
Идентификатор кодека : S_TEXT/UTF8
Идентификатор кодека/Информация : UTF-8 Plain Text
Заголовок : анлийские (для слабослышащих)
Язык : English
Default : Нет
Forced : Нет
pb.wtf



Скачать Иногда великая идея... через торрент http://i71.fastpic.ru/big/2015/0602/93/c5e88746b407e5bd9f773ca31f82c393.jpg Скачать фильм Иногда великая идея... через торрент бесплантно в хорошем качестве Описание: В орегонских лесах на берегу великой реки Ваконды-Ауги в городке Ваконда жизнь подобна древнегреческой трагедии, без права на ... 9.2 10 6
Торрент: Зарегистрирован [2015-06-02 08:12] · скачан: 38 раз
Статус: √ проверено
Размер: 3.98 GB
Как cкачать? Как скачать Иногда великая идея... через торрент | qTorrent

% Раздел Тема Автор DL S | L
Фильмы до 2000 г. [ 1.45 GB ] Иногда великая идея... / Sometimes a Great Notion [1970 г BDRip] MVO koenig Скачать
1 | 0
Фильмы [HD 720p, 1080p] (Хороший звук DUB, MVO) [ 9.69 GB ] Иногда великая идея... / Sometimes a Great Notion [1970 BDRip 1080p] MVO msltel Скачать
1 | 0
Фильмы до 2000 г. [ 2.63 GB ] Иногда великая идея... / Sometimes a Great Notion [1970 BDRip AVC] MVO msltel Скачать
1 | 0

28-11-2019 20:33  

Отключить всю рекламу на сайте

02-06-2015 23:13 Иногда великая идея... Скачать торрент  

Сильное описание к фильму. Нужно будет посмотреть.
Автору Спасибо.pb.wtf



    Дорогой пользователь! Огромная просьба, поблагодарите релизера, оцените раздачу и оставьте свои комментарий, если Вы скачали Иногда великая идея... через торрент бесплатно! Внесите свою лепту в развитие PiratBit!
    Комментировать посты могут только пользователи прошедшие не сложную регистрацию
    Показать сообщения:    

    Иногда великая идея... через торрент
    Скачать бесплатно Иногда великая идея...
    Иногда великая идея... скачать торрент
    Иногда великая идея... смотреть онлайн
    Cкачать фильм Иногда великая идея... бесплатно
    Иногда великая идея... скачать торрент в хорошем качестве
    Иногда великая идея... смотреть онлайн бесплатно в хорошем качестве


    Вы не можете начинать темы
    Вы не можете отвечать на сообщения
    Вы не можете редактировать свои сообщения
    Вы не можете удалять свои сообщения
    Вы не можете голосовать в опросах
    Вы не можете прикреплять файлы к сообщениям
    Вы можете скачивать файлы