Ссылка на приватное зеркало нашего сайта всего за 1$. Внимание количество ограничено!!!

2 сезон

iTunes

1 сезон

1

2 сезон

2 сезон

iTunes

1 сезон

RePack

30

Ultimate

ВАЖНО

ИГРА 18+

pack

RePack

MK11
pack

Забери бонус

RePack

jed

!!Акция!!

Alien_Rage

RePack

fifa19

RePack

Assassins Creed: Odyssey

RePack

NEED FOR SPEED™ PAYBACK

4 сезон

9 сезон

Бесстыжие 9 сезон

Все сериалы

все сериалы на PB.wtf

RePack

FAR CRY 5
  

Шёпот / The Whispers / Сезон: 1 / Серии 1-13 из 13 (Чарльз Бисон / Charles Beeson, П.Дж. Пеше / P.J. Pesce, Холли Дэйл / Holly Dale) [2015 , США, фантастика, драма, WEB-DL 720р, MVO] [BaibaKo] pb.wtf

Шёпот через торрент pb.wtf

Размер: 17.81 GB | Добавлен: 5 лет 2 мес. назад | Торрент скачан:26 раз
Скачать  

03-06-2015 01:52 Шёпот Скачать торрент  

Шёпот / The Whispers


  • Год выпуска: 2015
  • Страна: США
  • Жанр: фантастика, драма
  • Продолжительность: 00:41:29 (Серия)
  • Перевод: Профессиональный многоголосый закадровый [BaibaKo]
  • Субтитры: русские (rus on boy),
  • Режиссер: Чарльз Бисон / Charles Beeson, П.Дж. Пеше / P.J. Pesce, Холли Дэйл / Holly Dale
  • В ролях:

    Тейт Бёрчмор (Possessed Kid), Бэрри Слоун (Wes Lawrence), Лили Рэйб (Claire Bennigan), Кайли Роджерс (Minx Lawrence), Кайл Харрисон Брейткопф (Henry Bennigan), Дэвид Эндрюс (Secretary Frommer), Эбби Райдер Фортсон (Harper Weil), Kayden Magnuson (Cassandra Winters), Джеймисон Джонс (Harrison Weil), Майло Вентимилья (Drew), Том Батлер (Goetz), Джессика Хэрмон (Willa)

  • Описание:
    Инопланетные силы проникают в правительство США и вызывают хаос, при этом остаются незамеченными. Правительственным агентам удается выяснить, что пришельцы используют для воплощения своих целей самое дорогое, что у нас есть - детей...
  • Рейтинг:



  • Качество: WEB-DL 720р
  • Формат: :MKV
  • Видео кодек: AVC
  • Аудио кодек: AC3
  • Видео: 1276x718 (16:9), 2999 kbps, 23,976 fps, 0,137 bpp
  • Аудио №1: русский / 5.1 / 48 kHz / 384 kbps / 16 bit
  • Аудио №2: английский / 5.1 / 48 kHz / 384 kbps / 16 bit
  • Релиз от: GEKADOL

    Код:

    Внимание! Раздача ведётся путём добавления новых серий; при каждом добавлении создаётся новый торрент. Чтобы начать докачку новой серии, пользователям необходимо сделать следующее:
    (1) остановить скачивание,
    (2) удалить старый торрент у себя из клиента (старые серии удалять не надо),
    (3) скачать новый торрент и запустить его у себя в клиенте вместо старого, при этом указать клиенту путь в старую папку куда и должно происходить скачивание новых серий.
    Ваш клиент при этом должен произвести хеширование (проверку) старой папки (если не производит сам - помогите ему сделать это), и будет докачивать только те серии которых у вас ещё нет. Старые серии при этом не удаляются, а продолжают раздаваться!
    Eсли вы уже удалили старые серии, то предотвратить повторную закачку старых серий можно, отжав галочку в соответствующих местах при запуске нового торрента. По возможности, желательно не удалять старые серии как можно дольше чтобы релизёр не столько продолжал раздавать старые серии, а смог сконцентрироваться на новых.


    Код:

    General
    Unique ID                                : 240750105783458323683591581503839164417 (0xB51EC8A616174452BE39B101ADB25801)
    Complete name                            : F:\The.Whispers (S01) HDTV720p.BaibaKo\The.Whispers.s01e01.HDTV720p.Rus.Eng.BaibaKo.tv.mkv
    Format                                   : Matroska
    Format version                           : Version 4 / Version 2
    File size                                : 1.11 GiB
    Duration                                 : 41mn 29s
    Overall bit rate                         : 3 844 Kbps
    Encoded date                             : UTC 2015-06-02 21:57:37
    Writing application                      : mkvmerge v7.9.0 ('Birds') 64bit
    Writing library                          : libebml v1.3.1 + libmatroska v1.4.2
    DURATION                                 : 00:26:24.151000000
    NUMBER_OF_FRAMES                         : 8
    NUMBER_OF_BYTES                          : 460
    _STATISTICS_WRITING_APP                  : mkvmerge v7.9.0 ('Birds') 64bit
    _STATISTICS_WRITING_DATE_UTC             : 2015-06-02 21:57:37
    _STATISTICS_TAGS                         : BPS DURATION NUMBER_OF_FRAMES NUMBER_OF_BYTES

    Video
    ID                                       : 1
    Format                                   : AVC
    Format/Info                              : Advanced Video Codec
    Format profile                           : High@L4.1
    Format settings, CABAC                   : Yes
    Format settings, ReFrames                : 5 frames
    Codec ID                                 : V_MPEG4/ISO/AVC
    Duration                                 : 41mn 29s
    Bit rate                                 : 3 000 Kbps
    Width                                    : 1 276 pixels
    Height                                   : 718 pixels
    Display aspect ratio                     : 16:9
    Frame rate                               : 23.976 fps
    Color space                              : YUV
    Chroma subsampling                       : 4:2:0
    Bit depth                                : 8 bits
    Scan type                                : Progressive
    Bits/(Pixel*Frame)                       : 0.137
    Stream size                              : 890 MiB (78%)
    Writing library                          : x264 core 146 r2538 121396c
    Encoding settings                        : opencl=1 / cabac=1 / ref=5 / deblock=1:0:0 / analyse=0x3:0x113 / me=umh / subme=8 / psy=1 / psy_rd=1.00:0.00 / mixed_ref=1 / me_range=16 / chroma_me=1 / trellis=1 / 8x8dct=1 / cqm=0 / deadzone=21,11 / fast_pskip=1 / chroma_qp_offset=-2 / threads=24 / lookahead_threads=4 / sliced_threads=0 / nr=0 / decimate=1 / interlaced=0 / bluray_compat=0 / constrained_intra=0 / bframes=3 / b_pyramid=2 / b_adapt=2 / b_bias=0 / direct=3 / weightb=1 / open_gop=0 / weightp=2 / keyint=250 / keyint_min=23 / scenecut=40 / intra_refresh=0 / rc_lookahead=50 / rc=crf / mbtree=1 / crf=18.0 / qcomp=0.60 / qpmin=0 / qpmax=69 / qpstep=4 / ip_ratio=1.40 / aq=1:1.00
    Language                                 : English
    Default                                  : Yes
    Forced                                   : No
    DURATION                                 : 00:41:29.278000000
    NUMBER_OF_FRAMES                         : 59683
    NUMBER_OF_BYTES                          : 956560638
    _STATISTICS_WRITING_APP                  : mkvmerge v7.9.0 ('Birds') 64bit
    _STATISTICS_WRITING_DATE_UTC             : 2015-06-02 21:57:37
    _STATISTICS_TAGS                         : BPS DURATION NUMBER_OF_FRAMES NUMBER_OF_BYTES
    Matrix coefficients                      : BT.709-5, BT.1361, IEC 61966-2-4 709, SMPTE RP177

    Audio #1
    ID                                       : 2
    Format                                   : AC-3
    Format/Info                              : Audio Coding 3
    Mode extension                           : CM (complete main)
    Codec ID                                 : A_AC3
    Duration                                 : 41mn 29s
    Bit rate mode                            : Constant
    Bit rate                                 : 384 Kbps
    Channel(s)                               : 6 channels
    Channel positions                        : Front: L C R, Side: L R, LFE
    Sampling rate                            : 48.0 KHz
    Bit depth                                : 16 bits
    Compression mode                         : Lossy
    Stream size                              : 114 MiB (10%)
    Language                                 : Russian
    Default                                  : Yes
    Forced                                   : No

    Audio #2
    ID                                       : 3
    Format                                   : AC-3
    Format/Info                              : Audio Coding 3
    Mode extension                           : CM (complete main)
    Codec ID                                 : A_AC3
    Duration                                 : 41mn 29s
    Bit rate mode                            : Constant
    Bit rate                                 : 384 Kbps
    Channel(s)                               : 6 channels
    Channel positions                        : Front: L C R, Side: L R, LFE
    Sampling rate                            : 48.0 KHz
    Bit depth                                : 16 bits
    Compression mode                         : Lossy
    Stream size                              : 114 MiB (10%)
    Language                                 : English
    Default                                  : No
    Forced                                   : No

    Text
    ID                                       : 4
    Format                                   : UTF-8
    Codec ID                                 : S_TEXT/UTF8
    Codec ID/Info                            : UTF-8 Plain Text
    Title                                    : rus on boy
    Language                                 : Russian
    Default                                  : Yes
    Forced                                   : Yes




    Скриншоты:
    скриншот   скриншот   скриншот   скриншот   скриншот  
    скриншот  

    Раздача ведётся путём добавления новых серий. Добавлена 13 серия (02.09.2015).Просьба перекачать торрент файл.

    pb.wtf



  • Скачать Шёпот через торрент http://i1.imageban.ru/out/2015/06/03/ad73bd648977f2f804f2cfa16292baf4.jpg Скачать фильм Шёпот через торрент бесплантно в хорошем качестве Описание: Инопланетные силы проникают в правительство США и вызывают хаос, при этом остаются незамеченными. Правительственным агентам ... 9 10 10
    Info! Золотая раздача, скачанное не засчитывается.
    Торрент: Зарегистрирован [2015-09-02 00:48] · скачан: 26 раз
    Статус: √ проверено
    Размер: 17.81 GB
    Как cкачать? Как скачать Шёпот через торрент | qTorrent

    % Раздел Тема Автор DL S | L
    Зарубежные сериалы [ 7.12 GB ] Шёпот / The Whispers / Сезон: 1 / Серии 1-13 из 13 [2015 WEB-DLRip MVO] [BaibaKo] GEKADOL Скачать
    1 | 0


    Последний раз редактировалось: GEKADOL (2015-09-02 00:48), всего редактировалось 8 раз(а)

    28-11-2019 20:33  

    Отключить всю рекламу на сайте

    16-07-2015 06:23 Шёпот Скачать торрент  

    1 сезон 13 серия «Game Over» - 31 Авг 2015
    1 сезон 12 серия «Traveller in the Dark» - 24 Авг 2015
    1 сезон 11 серия «Homesick» - 17 Авг 2015
    1 сезон 10 серия «Darkest Fears» - 10 Авг 2015
    1 сезон 9 серия «Broken Child» - 3 Авг 2015
    1 сезон 8 серия «A Hollow Man» - 20 Июл 2015pb.wtf



      Дорогой пользователь! Огромная просьба, поблагодарите релизера, оцените раздачу и оставьте свои комментарий, если Вы скачали Шёпот через торрент бесплатно! Внесите свою лепту в развитие PiratBit!
      Комментировать посты могут только пользователи прошедшие не сложную регистрацию
      Показать сообщения:    

      Шёпот через торрент
      Скачать бесплатно Шёпот
      Шёпот скачать торрент
      Шёпот смотреть онлайн
      Cкачать фильм Шёпот бесплатно
      Шёпот скачать торрент в хорошем качестве
      Шёпот смотреть онлайн бесплатно в хорошем качестве


      Вы не можете начинать темы
      Вы не можете отвечать на сообщения
      Вы не можете редактировать свои сообщения
      Вы не можете удалять свои сообщения
      Вы не можете голосовать в опросах
      Вы не можете прикреплять файлы к сообщениям
      Вы можете скачивать файлы