Ссылка на приватное зеркало всего за 1$. Внимание количество ограничено!!!

iTunes

iTunes

iTunes

1

iTunes

iTunes

iTunes

iTunes

iTunes

30
pack

$ от Little Big

ВАЖНО

!!Акция!!

Alien_RageХит недели

RePack

Resident Evil 21

ИГРА 18+

pack

RePack

jed

!!Акция!!

Alien_Rage

RePack

fifa19

RePack

Assassins Creed: Odyssey

RePack

NEED FOR SPEED™ PAYBACK

4 сезон

9 сезон

Бесстыжие 9 сезон

Все сериалы

все сериалы на PB.wtf

RePack

FAR CRY 5
  

Полное превращение (Филипп Коршунов) [2015, Россия, комедия, фантастика, DVDRip] pb.wtf

Полное превращение через торрент pb.wtf

Размер: 1.37 GB | Добавлен: 4 года 11 мес. назад | Торрент скачан:2266 раз
Скачать  

03-06-2015 02:16 Полное превращение Скачать торрент  

Полное превращение


  • Год выпуска: 2015
  • Страна: Россия
  • Жанр: комедия, фантастика
  • Продолжительность: 01:20:27
  • Перевод: Не требуется

  • Режиссер: Филипп Коршунов
  • В ролях:

    Павел Абдалов (Леонид), Наиль Абдрахманов (Макс), Олег Гаас (Дмитрий Шахматов), Александра Булычёва (Диана), Александр Наумов (Евгений), Ирина Крутик (Виктория), Виталий Кудрявцев (Олег), Сергей Николаев (качок), Дмитрий Варшавский (Оскар), Арина Постникова (Олеся), Егор Сальников («Суслик»), Дмитрий Собачкин (клоун)

  • Описание:
    Главный герой - незадачливый риелтор Дима, жизнь которого - одна сплошная проблема: с работой, с родителями, с девушками.... Он так устал от себя и хочет стать кем-то другим, что случай... предоставляет ему такую возможность. Из рук чудаковатого ученого Дима получает прибор Превращатель, способный превращать любого человека в кого угодно. Пытаясь исправить свои проблемы, Дима меняет обликами двенадцать разных персонажей, и вовлекается в водоворот комических ситуаций, когда сломавшийся прибор начинает совершать превращения по своей воле. Постоянно превращаясь, балансируя на грани разоблачения, Дима распутывает свои проблемы и находит самого себя - доброго, умного парня, который возвращает страсть охладевшим родителям, строит карьеру и находит любовь.
  • Рейтинг:



  • Качество: DVDRip
  • Формат: :AVI
  • Видео кодек: XviD
  • Аудио кодек: AC3
  • Видео: 720x304 (2.35:1), 2042 kbps, 25 fps, 0,373 bpp
  • Аудио №1: 2.0 / 48 kHz / 192 kbps / 16 bit
  • Релиз от: GEKADOL

    Код:

    General
    Complete name                            : F:\P0lnoe.Prevrachen1e.2015.O.DVDRip.ELEKTRI4KA.uniongang.tv.avi
    Format                                   : AVI
    Format/Info                              : Audio Video Interleave
    File size                                : 1.37 GiB
    Duration                                 : 1h 20mn
    Overall bit rate                         : 2 441 Kbps
    Movie name                               : P0lnoe.Prevrachen1e.2015.O.DVDRip.ELEKTRI4KA.uniongang.tv
    Writing application                      : VirtualDubMod 1.5.10.3 | www.virtualdub-fr.org || (build 2550/release)
    Copyright                                : UNIONGANG&RUSTORRENTS

    Video
    ID                                       : 0
    Format                                   : MPEG-4 Visual
    Format profile                           : Advanced Simple@L5
    Format settings, BVOP                    : 2
    Format settings, QPel                    : No
    Format settings, GMC                     : No warppoints
    Format settings, Matrix                  : Default (MPEG)
    Muxing mode                              : Packed bitstream
    Codec ID                                 : XVID
    Codec ID/Hint                            : XviD
    Duration                                 : 1h 20mn
    Bit rate                                 : 2 042 Kbps
    Width                                    : 720 pixels
    Height                                   : 304 pixels
    Display aspect ratio                     : 2.35:1
    Frame rate                               : 25.000 fps
    Color space                              : YUV
    Chroma subsampling                       : 4:2:0
    Bit depth                                : 8 bits
    Scan type                                : Progressive
    Compression mode                         : Lossy
    Bits/(Pixel*Frame)                       : 0.373
    Stream size                              : 1.15 GiB (84%)
    Writing library                          : XviD 73

    Audio #1
    ID                                       : 1
    Format                                   : AC-3
    Format/Info                              : Audio Coding 3
    Mode extension                           : CM (complete main)
    Codec ID                                 : 2000
    Duration                                 : 1h 20mn
    Bit rate mode                            : Constant
    Bit rate                                 : 192 Kbps
    Channel(s)                               : 2 channels
    Channel positions                        : Front: L R
    Sampling rate                            : 48.0 KHz
    Bit depth                                : 16 bits
    Compression mode                         : Lossy
    Stream size                              : 110 MiB (8%)
    Alignment                                : Split accross interleaves
    Interleave, duration                     : 40 ms (1.00 video frame)
    Interleave, preload duration             : 500 ms




    Скриншоты:



    pb.wtf



  • Скачать Полное превращение через торрент http://i69.fastpic.ru/big/2015/0603/18/4767c8a579a30c384a1646bda438fc18.jpg Скачать фильм Полное превращение через торрент бесплантно в хорошем качестве Описание: Главный герой - незадачливый риелтор Дима, жизнь которого - одна сплошная проблема: с работой, с родителями, с девушками.... Он ... 9.2 10 39
    Торрент: Зарегистрирован [2015-06-03 02:16] · скачан: 2 266 раз
    Статус: √ проверено
    Размер: 1.37 GB
    Как cкачать? Как скачать Полное превращение через торрент | qTorrent

    % Раздел Тема Автор DL S | L
    Наши фильмы (DVD фильмы) [ 3.94 GB ] Полное превращение [2015 DVD5] R5 voovaz Скачать
    1 | 0

    28-11-2019 20:33  

    Отключить всю рекламу на сайте

      Дорогой пользователь! Огромная просьба, поблагодарите релизера, оцените раздачу и оставьте свои комментарий, если Вы скачали Полное превращение через торрент бесплатно! Внесите свою лепту в развитие PiratBit!
      Комментировать посты могут только пользователи прошедшие не сложную регистрацию
      Показать сообщения:    

      Полное превращение через торрент
      Скачать бесплатно Полное превращение
      Полное превращение скачать торрент
      Полное превращение смотреть онлайн
      Cкачать фильм Полное превращение бесплатно
      Полное превращение скачать торрент в хорошем качестве
      Полное превращение смотреть онлайн бесплатно в хорошем качестве


      Вы не можете начинать темы
      Вы не можете отвечать на сообщения
      Вы не можете редактировать свои сообщения
      Вы не можете удалять свои сообщения
      Вы не можете голосовать в опросах
      Вы не можете прикреплять файлы к сообщениям
      Вы можете скачивать файлы