Ссылка на приватное зеркало нашего сайта всего за 1$. Внимание количество ограничено!!!

2 сезон

iTunes

1 сезон

1

iTunes

iTunes

iTunes

1 сезон

RePack

30

ИГРА 18+

pack

ВАЖНО

!!Акция!!

Alien_RageХит недели

RePack

MK11
pack

Забери бонус

RePack

jed

!!Акция!!

Alien_Rage

RePack

fifa19

RePack

Assassins Creed: Odyssey

RePack

NEED FOR SPEED™ PAYBACK

4 сезон

9 сезон

Бесстыжие 9 сезон

Все сериалы

все сериалы на PB.wtf

RePack

FAR CRY 5
  

Счастливый брак / A Good Marriage (Питер Эскин / Peter Askin) [2014, США, триллер, драма, HDRip] MVO pb.wtf

Счастливый брак через торрент pb.wtf

Размер: 1.46 GB | Добавлен: 5 лет 4 мес. назад | Торрент скачан:799 раз
Скачать  

03-06-2015 04:29 Счастливый брак Скачать торрент  

Счастливый брак / A Good Marriage


  • Год выпуска: 2014
  • Страна: США
  • Жанр: триллер, драма
  • Продолжительность: 01:41:49
  • Перевод: Многоголосый, закадровый

  • Режиссер: Питер Эскин / Peter Askin
  • В ролях:

    Джоан Аллен (Darcy Anderson), Энтони ЛаПалья (Bob Anderson), Стивен Лэнг (Holt Ramsey), Кара Буоно (Betty Pike), Кристен Коннолли (Petra Anderson), Майк О’Мэлли (Bill Gaines), Тео Стокман (Donnie Anderson), Уилл Роджерс (Vince Dorne), Пан Банду (TV Anchor), Терра Макинтош (News Reporter), Роберт Хоган (Minister), Sean Dugan (Cleric)

  • Описание:
    Боб и Дарси Андерсоны — счастливая семейная пара, которая прожила в браке двадцать пять лет. За это долгое время они обзавелись прекрасным уютным домом, а также воспитали двоих замечательных детей. Каждый из них имеет любимую работу и личное хобби, а в семье царит полное взаимопонимание и гармония. Конечно же они сталкивались с некими проблемами, но всегда находили выход из сложных ситуаций, всячески поддерживая друг друга. Они не представляют себе жизни друг без друга, но однажды Дарси узнает шокирующую новость о своем любимом супруге, после чего ее жизнь не просто кардинально меняется, но и оказывается под угрозой...
  • Рейтинг:



  • Качество: HDRip
  • Формат: :AVI
  • Видео кодек: XviD
  • Аудио кодек: AC3
  • Видео: 720x304 (2.35:1), 1766 kbps, 23,976 fps, 0,337 bpp
  • Аудио: 2.0 / 48 kHz / 192 kbps / 16 bit
  • Релиз от: GEKADOL

    Код:

    General
    Complete name                            : D:\Фильмы\S4astlivyj.brak.2014.P.HDRip.avi
    Format                                   : AVI
    Format/Info                              : Audio Video Interleave
    File size                                : 1.46 GiB
    Duration                                 : 1h 41mn
    Overall bit rate                         : 2 049 Kbps
    Writing application                      : VirtualDubMod 1.5.10.2 (build 2540/release)
    Writing library                          : VirtualDubMod build 2540/release

    Video
    ID                                       : 0
    Format                                   : MPEG-4 Visual
    Format profile                           : Advanced Simple@L5
    Format settings, BVOP                    : 2
    Format settings, QPel                    : No
    Format settings, GMC                     : No warppoints
    Format settings, Matrix                  : Default (MPEG)
    Codec ID                                 : XVID
    Codec ID/Hint                            : XviD
    Duration                                 : 1h 41mn
    Bit rate                                 : 1 767 Kbps
    Width                                    : 720 pixels
    Height                                   : 304 pixels
    Display aspect ratio                     : 2.35:1
    Frame rate                               : 23.976 fps
    Color space                              : YUV
    Chroma subsampling                       : 4:2:0
    Bit depth                                : 8 bits
    Scan type                                : Progressive
    Compression mode                         : Lossy
    Bits/(Pixel*Frame)                       : 0.337
    Stream size                              : 1.26 GiB (86%)
    Writing library                          : XviD 1.2.1 (UTC 2008-12-04)

    Audio
    ID                                       : 1
    Format                                   : AC-3
    Format/Info                              : Audio Coding 3
    Mode extension                           : CM (complete main)
    Codec ID                                 : 2000
    Duration                                 : 1h 41mn
    Bit rate mode                            : Constant
    Bit rate                                 : 192 Kbps
    Channel(s)                               : 2 channels
    Channel positions                        : Front: L R
    Sampling rate                            : 48.0 KHz
    Bit depth                                : 16 bits
    Compression mode                         : Lossy
    Stream size                              : 140 MiB (9%)
    Alignment                                : Split accross interleaves




    Скриншоты:


    pb.wtf



  • Скачать Счастливый брак через торрент http://i72.fastpic.ru/big/2015/0603/bc/3881c91544e6ede4e45e9789fa5b80bc.jpg Скачать фильм Счастливый брак через торрент бесплантно в хорошем качестве Описание: Боб и Дарси Андерсоны — счастливая семейная пара, которая прожила в браке двадцать пять лет. За это долгое время они обзавелись ... 9.4 10 17
    Info! Золотая раздача, скачанное не засчитывается.
    Торрент: Зарегистрирован [2015-06-03 04:29] · скачан: 799 раз
    Статус: √ проверено
    Размер: 1.46 GB
    Как cкачать? Как скачать Счастливый брак через торрент | qTorrent

    % Раздел Тема Автор DL S | L
    Фильмы [HD 720p, 1080p] (Хороший звук DUB, MVO) [ 3.67 GB ] Счастливый брак / A Good Marriage [2014 BDRip 720p] MVO bober100 Скачать
    3 | 0

    28-11-2019 20:33  

    Отключить всю рекламу на сайте

    03-06-2015 17:03 Счастливый брак Скачать торрент  

    Трейлер впечатлил "Стивин Кинг" ... ну скачаю посмотрю спасибоpb.wtf



      Дорогой пользователь! Огромная просьба, поблагодарите релизера, оцените раздачу и оставьте свои комментарий, если Вы скачали Счастливый брак через торрент бесплатно! Внесите свою лепту в развитие PiratBit!
      Комментировать посты могут только пользователи прошедшие не сложную регистрацию
      Показать сообщения:    

      Счастливый брак через торрент
      Скачать бесплатно Счастливый брак
      Счастливый брак скачать торрент
      Счастливый брак смотреть онлайн
      Cкачать фильм Счастливый брак бесплатно
      Счастливый брак скачать торрент в хорошем качестве
      Счастливый брак смотреть онлайн бесплатно в хорошем качестве


      Вы не можете начинать темы
      Вы не можете отвечать на сообщения
      Вы не можете редактировать свои сообщения
      Вы не можете удалять свои сообщения
      Вы не можете голосовать в опросах
      Вы не можете прикреплять файлы к сообщениям
      Вы можете скачивать файлы