Ссылка на приватное зеркало нашего сайта всего за 1$. Внимание количество ограничено!!!

2 сезон

iTunes

1 сезон

1

iTunes

iTunes

iTunes

1 сезон

RePack

30

ИГРА 18+

pack

ВАЖНО

!!Акция!!

Alien_RageХит недели

RePack

MK11
pack

Забери бонус

RePack

jed

!!Акция!!

Alien_Rage

RePack

fifa19

RePack

Assassins Creed: Odyssey

RePack

NEED FOR SPEED™ PAYBACK

4 сезон

9 сезон

Бесстыжие 9 сезон

Все сериалы

все сериалы на PB.wtf

RePack

FAR CRY 5
  

Робот по имени Чаппи / Chappie (Нил Бломкамп) [2015, фантастика, боевик, триллер, BDRip 720p / 60 FPS] DUB Лицензия от R.G. HD-Films pb.wtf

Робот по имени Чаппи через торрент pb.wtf

Размер: 6.81 GB | Добавлен: 5 лет 4 мес. назад | Торрент скачан:429 раз
Скачать  

03-06-2015 07:50 Робот по имени Чаппи Скачать торрент  


Робот по имени Чаппи / Chappie
«I am discovery. I am wonder. I am chappie»

ИНФОРМАЦИЯ:
Год выпуска: 2015
Страна: США, Мексика, ЮАР
Жанр: фантастика, боевик, триллер
Продолжительность: 02:00:19
Перевод: Дубляж - [BD CEE]
Субтитры: русские (Forced), русские (Full), украинские (Full)
Режиссер: Нил Бломкамп

В Ролях:


Шарлто Копли (Chappie), Дев Патель (Deon Wilson), Ниндзя (Ninja), Йоланди Фиссер (Yolandi), Хосе Пабло Кантильо (Yankie (Amerika)), Хью Джекман (Vincent Moore), Сигурни Уивер (Michelle Bradley), Брэндон Оре (Hippo), Джонни Селема (Pitbull), Андерсон Купер (играет самого себя), Морис Карпеде (Police Chief), Джейсон Коуп (Tetravaal Lead Mechanic)

Описание:
Чаппи - вундеркинд. Как и любой другой ребенок, он попадает под влияние своего окружения, и только его сердце и душа помогут ему найти свой путь. Но есть одна вещь, которая делает Чаппи непохожим на всех остальных: он - первый робот, способный чувствовать и думать.

  • Мировая премьера:4 марта 2015

    ТЕХ.ДАННЫЕ:
    Качество: BDRip 720p / 60 FPS
    Формат: MKV
    Видео кодек: AVC
    Аудио кодек: AC3
    Видео: AVC, 1280x536 (2.40:1), 6180 kbps, 59,940 fps, 0,150 bpp
    Аудио#1: 48 kHz, AC3 Dolby Digital, 3/2 (L,C,R,l,r) + LFE ch, 640.00 kbps | RUS
    Аудио#2: 48 kHz, AC3 Dolby Digital, 3/2 (L,C,R,l,r) + LFE ch, 640.00 kbps | UKR
    Аудио#3: 48 kHz, AC3 Dolby Digital, 3/2 (L,C,R,l,r) + LFE ch, 640.00 kbps | ENG
    Навигация по главам: есть



    Код:

    General
    Unique ID                                : 208892579887670380028265600195453427985 (0x9D273F5AA0517436ABEABCEF30B6A111)
    Complete name                            : H:\Chappie.720p.60fps_R.G.HD-Films.mkv
    Format                                   : Matroska
    Format version                           : Version 4 / Version 2
    File size                                : 6.81 GiB
    Duration                                 : 2h 0mn
    Overall bit rate                         : 8 105 Kbps
    Movie name                               : Chappie (2015) 720p 60 fps  - R.G. HD-Films
    Encoded date                             : UTC 2015-06-06 11:56:19
    Writing application                      : mkvmerge v7.9.0 ('Birds') 64bit
    Writing library                          : libebml v1.3.1 + libmatroska v1.4.2
    Cover                                    : Yes

    Video
    ID                                       : 1
    Format                                   : AVC
    Format/Info                              : Advanced Video Codec
    Format profile                           : High@L4.1
    Format settings, CABAC                   : Yes
    Format settings, ReFrames                : 4 frames
    Codec ID                                 : V_MPEG4/ISO/AVC
    Duration                                 : 2h 0mn
    Bit rate                                 : 6 180 Kbps
    Width                                    : 1 280 pixels
    Height                                   : 536 pixels
    Display aspect ratio                     : 2.40:1
    Frame rate mode                          : Constant
    Frame rate                               : 59.880 fps
    Original frame rate                      : 59.940 fps
    Color space                              : YUV
    Chroma subsampling                       : 4:2:0
    Bit depth                                : 8 bits
    Scan type                                : Progressive
    Bits/(Pixel*Frame)                       : 0.150
    Stream size                              : 5.06 GiB (74%)
    Writing library                          : x264 core 146 r2538 121396c
    Encoding settings                        : cabac=1 / ref=4 / deblock=1:0:0 / analyse=0x3:0x113 / me=umh / subme=11 / psy=1 / psy_rd=1.00:0.10 / mixed_ref=1 / me_range=32 / chroma_me=1 / trellis=2 / 8x8dct=1 / cqm=0 / deadzone=21,11 / fast_pskip=0 / chroma_qp_offset=-3 / threads=6 / lookahead_threads=1 / sliced_threads=0 / nr=0 / decimate=1 / interlaced=0 / bluray_compat=0 / constrained_intra=0 / bframes=3 / b_pyramid=2 / b_adapt=2 / b_bias=0 / direct=3 / weightb=1 / open_gop=0 / weightp=2 / keyint=600 / keyint_min=59 / scenecut=40 / intra_refresh=0 / rc_lookahead=60 / rc=2pass / mbtree=1 / bitrate=6180 / ratetol=1.0 / qcomp=0.60 / qpmin=0 / qpmax=69 / qpstep=4 / cplxblur=20.0 / qblur=0.5 / vbv_maxrate=50000 / vbv_bufsize=62500 / nal_hrd=none / filler=0 / ip_ratio=1.40 / aq=1:1.00
    Language                                 : English
    Default                                  : Yes
    Forced                                   : No

    Audio #1
    ID                                       : 2
    Format                                   : AC-3
    Format/Info                              : Audio Coding 3
    Mode extension                           : CM (complete main)
    Format settings, Endianness              : Big
    Codec ID                                 : A_AC3
    Duration                                 : 2h 0mn
    Bit rate mode                            : Constant
    Bit rate                                 : 640 Kbps
    Channel(s)                               : 6 channels
    Channel positions                        : Front: L C R, Side: L R, LFE
    Sampling rate                            : 48.0 KHz
    Bit depth                                : 16 bits
    Compression mode                         : Lossy
    Stream size                              : 551 MiB (8%)
    Title                                    : Dub | DD 5.1 @ 640 kbps - Blu-Ray CEE
    Language                                 : Russian
    Default                                  : Yes
    Forced                                   : No

    Audio #2
    ID                                       : 3
    Format                                   : AC-3
    Format/Info                              : Audio Coding 3
    Mode extension                           : CM (complete main)
    Format settings, Endianness              : Big
    Codec ID                                 : A_AC3
    Duration                                 : 2h 0mn
    Bit rate mode                            : Constant
    Bit rate                                 : 640 Kbps
    Channel(s)                               : 6 channels
    Channel positions                        : Front: L C R, Side: L R, LFE
    Sampling rate                            : 48.0 KHz
    Bit depth                                : 16 bits
    Compression mode                         : Lossy
    Stream size                              : 551 MiB (8%)
    Title                                    : Dub | DD 5.1 @ 640 kbps - Blu-Ray CEE
    Language                                 : Ukrainian
    Default                                  : No
    Forced                                   : No

    Audio #3
    ID                                       : 4
    Format                                   : AC-3
    Format/Info                              : Audio Coding 3
    Mode extension                           : CM (complete main)
    Format settings, Endianness              : Big
    Codec ID                                 : A_AC3
    Duration                                 : 2h 0mn
    Bit rate mode                            : Constant
    Bit rate                                 : 640 Kbps
    Channel(s)                               : 6 channels
    Channel positions                        : Front: L C R, Side: L R, LFE
    Sampling rate                            : 48.0 KHz
    Bit depth                                : 16 bits
    Compression mode                         : Lossy
    Stream size                              : 551 MiB (8%)
    Title                                    : Original | DD 5.1 @ 640 kbps - Blu-Ray CEE
    Language                                 : English
    Default                                  : No
    Forced                                   : No

    Text #1
    ID                                       : 5
    Format                                   : UTF-8
    Codec ID                                 : S_TEXT/UTF8
    Codec ID/Info                            : UTF-8 Plain Text
    Title                                    : Forced
    Language                                 : Russian
    Default                                  : Yes
    Forced                                   : No

    Text #2
    ID                                       : 6
    Format                                   : UTF-8
    Codec ID                                 : S_TEXT/UTF8
    Codec ID/Info                            : UTF-8 Plain Text
    Title                                    : Full
    Language                                 : Russian
    Default                                  : No
    Forced                                   : No

    Text #3
    ID                                       : 7
    Format                                   : UTF-8
    Codec ID                                 : S_TEXT/UTF8
    Codec ID/Info                            : UTF-8 Plain Text
    Title                                    : Full
    Language                                 : Ukrainian
    Default                                  : No
    Forced                                   : No

    Menu
    00:00:00.000                             : en:Chapter 1
    00:03:37.008                             : en:Chapter 2
    00:09:55.260                             : en:Chapter 3
    00:13:50.495                             : en:Chapter 4
    00:21:53.644                             : en:Chapter 5
    00:31:17.541                             : en:Chapter 6
    00:37:19.320                             : en:Chapter 7
    00:46:58.731                             : en:Chapter 8
    00:54:36.690                             : en:Chapter 9
    01:06:12.927                             : en:Chapter 10
    01:09:57.649                             : en:Chapter 11
    01:16:48.395                             : en:Chapter 12
    01:24:59.551                             : en:Chapter 13
    01:31:35.198                             : en:Chapter 14
    01:42:36.942                             : en:Chapter 15
    01:50:03.595                             : en:Chapter 16

    Скриншоты:


    © Оформление by Ворон
    pb.wtf



  • Скачать Робот по имени Чаппи через торрент http://i69.fastpic.ru/big/2015/0603/47/5d293d623f20b22fcf5612049293bd47.png Скачать фильм Робот по имени Чаппи через торрент бесплантно в хорошем качестве Описание: Чаппи - вундеркинд. Как и любой другой ребенок, он попадает под влияние своего окружения, и только его сердце и душа помогут ему ... 9.9 10 24
    Info! Золотая раздача, скачанное не засчитывается.
    Торрент: Зарегистрирован [2015-06-06 12:22] · скачан: 429 раз
    Статус: √ проверено
    Размер: 6.81 GB
    Как cкачать? Как скачать Робот по имени Чаппи через торрент | qTorrent



    Последний раз редактировалось: -Lexx- (2015-06-06 12:22), всего редактировалось 2 раз(а)

    28-11-2019 20:33  

    Отключить всю рекламу на сайте

    03-06-2015 10:30 Робот по имени Чаппи Скачать торрент  

    многим фильм понравился- но я то привык к сильным терминаторам-которых не бьют все кино и не дают все время лещейpb.wtf



    04-06-2015 14:17 Робот по имени Чаппи Скачать торрент  

    Спасибо Серый за качество. Фильм понравился хоть и во многом наивный, но смотрится хорошо. Пересматривать еще раз конечно не буду, а вот вторую часть глянем (ждем).pb.wtf



    06-06-2015 12:49 Робот по имени Чаппи Скачать торрент  

    Торрент-файл обновлен. За лицензионный звук Blu-Ray CEE спасибо и лично potroks.pb.wtf



    06-06-2015 14:40 Робот по имени Чаппи Скачать торрент  

    фильм не без соплей,но посмотреть его стоит. Весьма интересный.pb.wtf



    07-06-2015 07:33 Робот по имени Чаппи Скачать торрент  

    http://screenshotcomparison.com/comparison/130328
    Разный принцип добавления кадров.
    Плавность картинки такая же.)))pb.wtf



    07-06-2015 07:49 Робот по имени Чаппи Скачать торрент  

    еnvy писал(а):

    Плавность картинки такая же.)))

    Не согласен.В скриншоте с искажениями более плавный (точный промежуточный) переход с одного кадра на другой.pb.wtf



    07-06-2015 07:57 Робот по имени Чаппи Скачать торрент  

    мда( ref=4 - зачем? кто вам это подсказал!? bframes=3 при subme=11 ну это не актуально. И с фильтром работать и работать...pb.wtf



    07-06-2015 08:03 Робот по имени Чаппи Скачать торрент  

    Tiberiumsun69, каждый делает по своему...
    Когда процесс кодирования закончится скину семпл.)))pb.wtf



    07-06-2015 08:10 Робот по имени Чаппи Скачать торрент  

    еnvy писал(а):

    Tiberiumsun69, каждый делает по своему...
    Когда процесс кодирования закончится скину семпл.)))

    В сэмпле это гораздо ощутимей.pb.wtf



    08-06-2015 02:24 Робот по имени Чаппи Скачать торрент  

    Tiberiumsun69, фильм готов.
    Какой промежуток времени показать?pb.wtf



    08-06-2015 05:14 Робот по имени Чаппи Скачать торрент  

    08-06-2015 06:31 Робот по имени Чаппи Скачать торрент  

    Люди не трате время на эту хренатень :snooze:pb.wtf



    08-06-2015 12:08 Робот по имени Чаппи Скачать торрент  

    Tiberiumsun69, так что там?
    Какое время в семпле предоставить?pb.wtf



      Дорогой пользователь! Огромная просьба, поблагодарите релизера, оцените раздачу и оставьте свои комментарий, если Вы скачали Робот по имени Чаппи через торрент бесплатно! Внесите свою лепту в развитие PiratBit!
      Комментировать посты могут только пользователи прошедшие не сложную регистрацию
      Показать сообщения:    

      Робот по имени Чаппи через торрент
      Скачать бесплатно Робот по имени Чаппи
      Робот по имени Чаппи скачать торрент
      Робот по имени Чаппи смотреть онлайн
      Cкачать фильм Робот по имени Чаппи бесплатно
      Робот по имени Чаппи скачать торрент в хорошем качестве
      Робот по имени Чаппи смотреть онлайн бесплатно в хорошем качестве


      Вы не можете начинать темы
      Вы не можете отвечать на сообщения
      Вы не можете редактировать свои сообщения
      Вы не можете удалять свои сообщения
      Вы не можете голосовать в опросах
      Вы не можете прикреплять файлы к сообщениям
      Вы можете скачивать файлы