Anonymous, доброй ночи, присоединяйтесь к нам в Telegram!, здесь всегда актуальный адрес сайта, оперативная поддержка и многое другое!

>

5.5

iTunes

7.4

iTunes

7.9

iTunes

1

7.7

1 сезон

6.8

iTunes

7.3

1 сезон

13

6.7

1 сезон

8.3

RePack

30

ULTIMATE

pack

9.9

Лицензия

ВАЖНО

ИГРА 18+

pack

7.3

RePack

MK11

7.7

RePack

jed

7.8

RePack

fifa19

8.5

RePack

RDR2

RePack

NEED FOR SPEED™ PAYBACK

4 сезон

9 сезон

Бесстыжие 9 сезон

Все сериалы

все сериалы на PB.wtf

RePack

FAR CRY 5

Anonymous, доброй ночи, мы катастрофически не успеваем собрать деньги на оплату серверов, помогите нам пожалуйста 5,10,15р., для нас важна любая помощь . В качестве благодарности мы отключим Вам всю рекламу на сайте (укажите свой ник в строку Ваше имя)!

×
  
Magnet ссылка

Люди в черном 1, 2, 3 / Men in Black I, II, III (Барри Зонненфельд / Barry Sonnenfeld) (1997, 2002, 2012 гг., фантастика, боевик, комедия, BDRip 720p, DUB] 60fps pb.wtf

Люди в черном 1, 2, 3 через торрент pb.wtf

Качают: 1 [ 0 KB/s ]
Размер: 10.61 GB | Добавлен: 6 лет 4 мес. назад | Торрент скачан:577 раз
Смотреть онлайн Люди в черном 1, 2, 3 | Скачать    Ребята, помогите собрать деньги на оплату серверов!!!

03-06-2015 14:00 Люди в черном 1, 2, 3 Скачать торрент  

Люди в черном: Трилогия / Men in black: Trilogy
Люди в черном / Men in Black
Год выпуска: 1997
Страна: США
Жанр: фантастика, комедия
Продолжительность: 01:37:58
Перевод: Дубляж
Субтитры: Rus (полные)

Режиссер: Барри Зонненфельд
Продюссер: Лори МакДональд, Уолтер Ф. Паркс, Стивен Р. Молен
Сценарий: Эд Соломон, Лоуелл Каннингэм

Бюджет: $90 000 000
Премьера в мире: 2 июля 1997

IMDB 7.20 (351 881)


В ролях: Томми Ли Джонс, Уилл Смит, Винсент Д’Онофрио, Линда Фиорентино, Рип Торн, Тони Шэлуб, Шиван Фэллон, Майк Нассбаум, Джон Грайз, Фредрик Лене,

Роли дублировали: Рудольф Панков, Всеволод Кузнецов, Борис Быстров, Валентина Ананьина, Александр Белявский

Описание: Они — самый большой секрет Земли. Они работают на неофициальное правительственное агентство, регулирующее деятельность инопланетян на Земле.Они — это лучшая, последняя и единственная линия защиты Земли от отбросов вселенной. Их работа секретна, их оружие совершенно, им нет равных, они не оставляют следов. Они — это Люди в черном.


Качество: BDRip 720p / 60 Fps
Формат: MKV
Видео кодек: H.264
Аудио кодек: AC3
Видео: x264, 1280 x 696 (1,85:1), 6248 kbps, 59,940 fps, ( 0.092 bpp)
Аудио#1: AC-3, 48.0 KHz, 6 ch, 384 Kbps ( Dub )
Навигация по главам: есть



скриншот   скриншот   скриншот   скриншот   скриншот   скриншот  
x264 [info]: frame I:2055 Avg QP:17.05 size:128157
x264 [info]: frame P:102863 Avg QP:19.86 size: 23595
x264 [info]: frame B:247107 Avg QP:23.81 size: 3985
x264 [info]: consecutive B-frames: 6.5% 6.2% 11.4% 24.8% 51.2%


Общее
Уникальный идентификатор : 228045614917752354598631848760237102525 (0xAB8FFCE37382422E9FB0796BDE8C15BD)
Полное имя : E:\Men in Black Trilogy\Men.in.Black.1997.BDRip.720p(60Fps) .mkv
Формат : Matroska
Версия формата : Version 4 / Version 2
Размер файла : 3,69 Гбайт
Продолжительность : 1 ч. 37 м.
Общий поток : 5394 Кбит/сек
Название фильма : Люди в черном / Men in Black (1997) BDRip 720p (60 Fps)
Дата кодирования : UTC 2015-05-18 06:56:09
Программа кодирования : mkvmerge v6.2.0 ('Promised Land') built on Apr 28 2013 12:22:01
Библиотека кодирования : libebml v1.3.0 + libmatroska v1.4.0

Видео
Идентификатор : 1
Формат : AVC
Формат/Информация : Advanced Video Codec
Профиль формата : High@L4.1
Параметр CABAC формата : Да
Параметр ReFrames формата : 4 кадра
Идентификатор кодека : V_MPEG4/ISO/AVC
Продолжительность : 1 ч. 37 м.
Битрейт : 4903 Кбит/сек
Ширина : 1280 пикселей
Высота : 696 пикселей
Соотношение сторон : 1,85:1
Режим частоты кадров : Постоянный
Частота кадров : 59,880 кадров/сек
Частота кадров в оригинале : 59,940 кадров/сек
Цветовое пространство : YUV
Субдискретизация насыщенности : 4:2:0
Битовая глубина : 8 бит
Тип развёртки : Прогрессивная
Бит/(Пиксели*Кадры) : 0.092
Размер потока : 3,35 Гбайт (91%)
Заголовок : Men in Black (1997) BDRip 720p (60 Fps).mkv
Библиотека кодирования : x264 core 130 r2273 b3065e6
Настройки программы : cabac=1 / ref=4 / deblock=1:-3:-3 / analyse=0x3:0x113 / me=umh / subme=8 / psy=1 / psy_rd=1.00:0.00 / mixed_ref=1 / me_range=24 / chroma_me=1 / trellis=2 / 8x8dct=1 / cqm=0 / deadzone=21,11 / fast_pskip=1 / chroma_qp_offset=-2 / threads=3 / lookahead_threads=1 / sliced_threads=0 / nr=0 / decimate=1 / interlaced=0 / bluray_compat=0 / constrained_intra=0 / bframes=4 / b_pyramid=2 / b_adapt=2 / b_bias=0 / direct=1 / weightb=1 / open_gop=0 / weightp=2 / keyint=250 / keyint_min=25 / scenecut=40 / intra_refresh=0 / rc_lookahead=50 / rc=crf / mbtree=1 / crf=18.0 / qcomp=0.60 / qpmin=0 / qpmax=69 / qpstep=4 / ip_ratio=1.40 / aq=1:1.00
Язык : English
Default : Да
Forced : Нет

Аудио
Идентификатор : 2
Формат : AC-3
Формат/Информация : Audio Coding 3
Расширение режима : CM (complete main)
Параметр Endianness формата : Big
Идентификатор кодека : A_AC3
Продолжительность : 1 ч. 37 м.
Вид битрейта : Постоянный
Битрейт : 384 Кбит/сек
Каналы : 6 каналов
Расположение каналов : Front: L C R, Side: L R, LFE
Частота : 48,0 КГц
Битовая глубина : 16 бит
Метод сжатия : С потерями
Размер потока : 269 Мбайт (7%)
Заголовок : Dub
Язык : Russian
Default : Да
Forced : Нет

Текст
Идентификатор : 3
Формат : UTF-8
Идентификатор кодека : S_TEXT/UTF8
Идентификатор кодека/Информация : UTF-8 Plain Text
Заголовок : Full
Язык : Russian
Default : Нет
Forced : Нет

Меню
00:00:00.000 : en:Chapter 00
00:09:46.419 : en:Chapter 01
00:12:46.807 : en:Chapter 02
00:18:12.341 : en:Chapter 03
00:25:31.446 : en:Chapter 04
00:29:14.544 : en:Chapter 05
00:37:19.195 : en:Chapter 06
00:43:18.554 : en:Chapter 07
00:49:58.328 : en:Chapter 08
00:54:29.391 : en:Chapter 09
01:00:51.522 : en:Chapter 10
01:06:24.689 : en:Chapter 11
01:08:55.548 : en:Chapter 12
01:14:56.909 : en:Chapter 13
01:19:39.149 : en:Chapter 14
01:29:49.634 : en:Chapter 15

Люди в черном 2 / Men in Black II
Год выпуска: 2002
Страна: США
Жанр: фантастика, фэнтези, боевик, комедия
Продолжительность: 01:28:08
Перевод: Дубляж
Субтитры: Rus (полные)

Режиссер: Барри Зонненфельд
Продюссер: Лори МакДональд, Уолтер Ф. Паркс, Марк Хеймс
Сценарий: Роберт Гордон, Бэрри Фэнаро, Лоуелл Каннингэм

Бюджет: $140 000 000
Премьера в мире: 3 июля 2002

IMDB 6.00 (232 311)


В ролях: Томми Ли Джонс, Уилл Смит, Лара Флинн Бойл, Джонни Ноксвил, Розарио Доусон, Тони Шэлуб, Рип Торн, Патрик Варбертон, Джек Келер, Дэвид Кросс,

Роли дублировали: Станислав Концевич, Вадим Гущин, Александра Кожевникова, Владимир Маслаков, Светлана Репетина

Описание: Много лет назад лучший агент организации «Люди в черном» Кей получил задание особой важности. Ему поручили надёжно спрятать таинственный космический артефакт «Светоч». Проходит 25 лет и на Землю прилетает уничтожительница миров Серлина. Приняв образ сексапильной фотомодели, она начала поиски «Светоча». Чтобы не дать ни единого шанса Серлине артефакт нужно отыскать раньше неё, но есть одна проблема — после того как агенты Кей и Джей уничтожили четыре года назад хищного инопланетного таракана, Кею стёрли память. Теперь он мирно трудится в Почтовом департаменте. У него нет даже малейшего воспоминания о своём прошлом, и Джею, для спасения мира, во чтобы то ни стало нужно найти способ восстановить его память.


Качество: BDRip 720p / 60 Fps
Формат: MKV
Видео кодек: H.264
Аудио кодек: AC3
Видео: x264, 1280 x 696 (1,85:1), 6248 kbps, 59,940 fps, ( 0.080 bpp)
Аудио#1: AC-3, 48.0 KHz, 6 ch, 384 Kbps ( Dub )
Навигация по главам: есть



скриншот   скриншот   скриншот   скриншот   скриншот   скриншот  
x264 [info]: frame I:2022 Avg QP:15.54 size:101230
x264 [info]: frame P:84689 Avg QP:18.51 size: 21236
x264 [info]: frame B:230265 Avg QP:22.97 size: 3821
x264 [info]: consecutive B-frames: 4.0% 4.0% 12.6% 25.5% 53.9%


Общее
Уникальный идентификатор : 199327657810547914624198088316353895068 (0x95F51C49375950B1A5FBA87C606DDA9C)
Полное имя : E:\Men in Black Trilogy\Men in Black II.2002.720p(60fps).mkv
Формат : Matroska
Версия формата : Version 4 / Version 2
Размер файла : 2,92 Гбайт
Продолжительность : 1 ч. 28 м.
Общий поток : 4749 Кбит/сек
Название фильма : Люди в черном 2 / Men in Black II (2002) BDRip 720p (60 Fps)
Дата кодирования : UTC 2015-05-18 09:02:30
Программа кодирования : mkvmerge v6.2.0 ('Promised Land') built on Apr 28 2013 12:22:01
Библиотека кодирования : libebml v1.3.0 + libmatroska v1.4.0

Видео
Идентификатор : 1
Формат : AVC
Формат/Информация : Advanced Video Codec
Профиль формата : High@L4.1
Параметр CABAC формата : Да
Параметр ReFrames формата : 4 кадра
Идентификатор кодека : V_MPEG4/ISO/AVC
Продолжительность : 1 ч. 28 м.
Битрейт : 4271 Кбит/сек
Ширина : 1280 пикселей
Высота : 696 пикселей
Соотношение сторон : 1,85:1
Режим частоты кадров : Постоянный
Частота кадров : 59,880 кадров/сек
Частота кадров в оригинале : 59,940 кадров/сек
Цветовое пространство : YUV
Субдискретизация насыщенности : 4:2:0
Битовая глубина : 8 бит
Тип развёртки : Прогрессивная
Бит/(Пиксели*Кадры) : 0.080
Размер потока : 2,63 Гбайт (90%)
Заголовок : Men in Black II (2002) BDRip 720p (60 Fps).mkv
Библиотека кодирования : x264 core 130 r2273 b3065e6
Настройки программы : cabac=1 / ref=4 / deblock=1:-3:-3 / analyse=0x3:0x113 / me=umh / subme=8 / psy=1 / psy_rd=1.00:0.00 / mixed_ref=1 / me_range=24 / chroma_me=1 / trellis=2 / 8x8dct=1 / cqm=0 / deadzone=21,11 / fast_pskip=1 / chroma_qp_offset=-2 / threads=3 / lookahead_threads=1 / sliced_threads=0 / nr=0 / decimate=1 / interlaced=0 / bluray_compat=0 / constrained_intra=0 / bframes=4 / b_pyramid=2 / b_adapt=2 / b_bias=0 / direct=1 / weightb=1 / open_gop=0 / weightp=2 / keyint=250 / keyint_min=25 / scenecut=40 / intra_refresh=0 / rc_lookahead=50 / rc=crf / mbtree=1 / crf=17.0 / qcomp=0.60 / qpmin=0 / qpmax=69 / qpstep=4 / ip_ratio=1.40 / aq=1:1.00
Язык : English
Default : Да
Forced : Нет

Аудио
Идентификатор : 2
Формат : AC-3
Формат/Информация : Audio Coding 3
Расширение режима : CM (complete main)
Параметр Endianness формата : Big
Идентификатор кодека : A_AC3
Продолжительность : 1 ч. 28 м.
Вид битрейта : Постоянный
Битрейт : 384 Кбит/сек
Каналы : 6 каналов
Расположение каналов : Front: L C R, Side: L R, LFE
Частота : 48,0 КГц
Битовая глубина : 16 бит
Метод сжатия : С потерями
Размер потока : 242 Мбайт (8%)
Заголовок : Dub
Язык : Russian
Default : Да
Forced : Нет

Текст
Идентификатор : 3
Формат : UTF-8
Идентификатор кодека : S_TEXT/UTF8
Идентификатор кодека/Информация : UTF-8 Plain Text
Заголовок : Full
Язык : Russian
Default : Нет
Forced : Нет

Меню
00:00:00.000 : en:00:00:00.000
00:07:01.129 : en:00:07:01.129
00:13:20.716 : en:00:13:20.716
00:19:05.936 : en:00:19:05.936
00:24:23.170 : en:00:24:23.170
00:30:41.256 : en:00:30:41.256
00:34:59.388 : en:00:34:59.388
00:41:55.596 : en:00:41:55.596
00:48:13.974 : en:00:48:13.974
00:52:32.858 : en:00:52:32.858
00:57:32.824 : en:00:57:32.824
01:02:34.125 : en:01:02:34.125
01:06:20.434 : en:01:06:20.434
01:10:30.059 : en:01:10:30.059
01:13:54.847 : en:01:13:54.847
01:16:02.474 : en:01:16:02.474
Люди в черном 3 / Men in Black 3
Год выпуска: 2012
Страна: США
Жанр: фантастика, боевик, комедия, приключения
Продолжительность: 01:45:50
Перевод: Дубляж
Субтитры: Rus (полные)

Режиссер: Барри Зонненфельд
Продюссер: Лори МакДональд, Уолтер Ф. Паркс, Дж. Мак Браун
Сценарий: Этан Коэн, Лоуелл Каннингэм

Бюджет: $225 000 000
Премьера в мире: 14 мая 2012

IMDB 6.90 (233 882)


В ролях: Уилл Смит, Джош Бролин, Томми Ли Джонс, Джемейн Клемент, Майкл Стулбарг, Эмма Томпсон, Элис Ив, Майк Колтер, Билл Хейдер, Майкл Чернус,

Роли дублировали: Станислав Концевич, Иван Паршин, Сергей Паршин, Вадим Гущин, Олег Куликович

Описание: Агент Джей узнает, что никакого защитного галактического щита, способного отразить иноземный удар, не существует. Агент Кей не построил его, потому что был убит в 1969 году. Агент Джей должен совершить путешествие во времени, чтобы спасти Землю и жизнь напарника.


Качество: BDRip 720p / 60 Fps
Формат: MKV
Видео кодек: H.264
Аудио кодек: AC3
Видео: x264, 1280 x 696 (1,85:1), 4918 kbps, 59,940fps, ( 0.092 bpp)
Аудио#1: AC-3, 48.0 KHz, 6 ch, 384 Kbps ( Dub )
Навигация по главам: есть



скриншот   скриншот   скриншот   скриншот   скриншот   скриншот  
x264 [info]: frame I:2558 Avg QP:15.68 size:144160
x264 [info]: frame P:103281 Avg QP:18.43 size: 23833
x264 [info]: frame B:274421 Avg QP:22.28 size: 4198
x264 [info]: consecutive B-frames: 4.7% 4.8% 10.4% 24.9% 55.2%


Общее
Уникальный идентификатор : 194766459078654758233741225378718879214 (0x9286A7D37299D74FB0524C9F4ACF0DEE)
Полное имя : E:\Men in Black Trilogy\Men.in.Black.3(2012)BDRip.720p.(60 Fps).mkv
Формат : Matroska
Версия формата : Version 4 / Version 2
Размер файла : 4,00 Гбайт
Продолжительность : 1 ч. 45 м.
Общий поток : 5410 Кбит/сек
Название фильма : Люди в черном 3 / Men in Black 3 (2012) BDRip 720p (60 Fps)
Дата кодирования : UTC 2015-05-20 09:38:47
Программа кодирования : mkvmerge v6.2.0 ('Promised Land') built on Apr 28 2013 12:22:01
Библиотека кодирования : libebml v1.3.0 + libmatroska v1.4.0

Видео
Идентификатор : 1
Формат : AVC
Формат/Информация : Advanced Video Codec
Профиль формата : High@L4.1
Параметр CABAC формата : Да
Параметр ReFrames формата : 4 кадра
Идентификатор кодека : V_MPEG4/ISO/AVC
Продолжительность : 1 ч. 45 м.
Битрейт : 4918 Кбит/сек
Ширина : 1280 пикселей
Высота : 696 пикселей
Соотношение сторон : 1,85:1
Режим частоты кадров : Постоянный
Частота кадров : 59,880 кадров/сек
Частота кадров в оригинале : 59,940 кадров/сек
Цветовое пространство : YUV
Субдискретизация насыщенности : 4:2:0
Битовая глубина : 8 бит
Тип развёртки : Прогрессивная
Бит/(Пиксели*Кадры) : 0.092
Размер потока : 3,63 Гбайт (91%)
Заголовок : Men in Black 3 (2012) BDRip 720p (60 Fps).mkv
Библиотека кодирования : x264 core 130 r2273 b3065e6
Настройки программы : cabac=1 / ref=4 / deblock=1:-3:-3 / analyse=0x3:0x113 / me=umh / subme=8 / psy=1 / psy_rd=1.00:0.00 / mixed_ref=1 / me_range=24 / chroma_me=1 / trellis=1 / 8x8dct=1 / cqm=0 / deadzone=21,11 / fast_pskip=1 / chroma_qp_offset=-2 / threads=3 / lookahead_threads=1 / sliced_threads=0 / nr=0 / decimate=1 / interlaced=0 / bluray_compat=0 / constrained_intra=0 / bframes=4 / b_pyramid=2 / b_adapt=2 / b_bias=0 / direct=3 / weightb=1 / open_gop=0 / weightp=2 / keyint=250 / keyint_min=25 / scenecut=40 / intra_refresh=0 / rc_lookahead=50 / rc=crf / mbtree=1 / crf=17.0 / qcomp=0.60 / qpmin=0 / qpmax=69 / qpstep=4 / ip_ratio=1.40 / aq=1:1.00
Язык : English
Default : Да
Forced : Нет

Аудио
Идентификатор : 2
Формат : AC-3
Формат/Информация : Audio Coding 3
Расширение режима : CM (complete main)
Параметр Endianness формата : Big
Идентификатор кодека : A_AC3
Продолжительность : 1 ч. 45 м.
Вид битрейта : Постоянный
Битрейт : 384 Кбит/сек
Каналы : 6 каналов
Расположение каналов : Front: L C R, Side: L R, LFE
Частота : 48,0 КГц
Битовая глубина : 16 бит
Метод сжатия : С потерями
Размер потока : 290 Мбайт (7%)
Заголовок : Dub
Язык : Russian
Default : Да
Forced : Нет

Текст
Идентификатор : 3
Формат : UTF-8
Идентификатор кодека : S_TEXT/UTF8
Идентификатор кодека/Информация : UTF-8 Plain Text
Заголовок : Full
Язык : Russian
Default : Нет
Forced : Нет

Меню
00:00:00.000 : :Chapter 01
00:06:09.577 : :Chapter 02
00:11:27.478 : :Chapter 03
00:16:58.809 : :Chapter 04
00:22:36.229 : :Chapter 05
00:31:24.632 : :Chapter 06
00:37:36.420 : :Chapter 07
00:42:43.018 : :Chapter 08
00:48:55.849 : :Chapter 09
00:53:58.235 : :Chapter 10
00:59:27.772 : :Chapter 11
01:05:52.782 : :Chapter 12
01:11:56.312 : :Chapter 13
01:19:50.619 : :Chapter 14
01:27:57.063 : :Chapter 15
01:35:30.683 : :Chapter 16
Автор рипа: slaventi-69 pb.wtf



Скачать Люди в черном 1, 2, 3 через торрент http://i71.fastpic.ru/big/2015/0603/7f/1e45363e6388bfea54ab0ad3b327607f.gif Скачать, смотреть онлайн Люди в черном 1, 2, 3 бесплантно в хорошем качестве Описание: Они — самый большой секрет Земли. Они работают на неофициальное правительственное агентство, регулирующее деятельность ... 9.7 10 26
Info! Золотая раздача, скачанное не засчитывается.
Торрент: Зарегистрирован [2015-06-03 14:00] · скачан: 577 раз
Статус: √ проверено
Размер: 10.61 GB
Как cкачать? Как скачать Люди в черном 1, 2, 3 через торрент | UTorrent

% Раздел Тема Автор DL S | L
Сборники и Сиквелы (48-60 fps) [ 34.89 GB ] Люди в черном 1 2 3 / Men in Black I II III (1997 2002 2012 г BDRip 1080p DUB] 60fps Ворон Скачать
1 | 0

28-11-2019 20:33  

Отключить всю рекламу на сайте

03-06-2015 15:25 Люди в черном 1, 2, 3 Скачать торрент  

slaventi-69, Помню еще на кассетах 1-2 части покупал. pb.wtf



03-06-2015 15:35 Люди в черном 1, 2, 3 Скачать торрент  

Было дело, привозил с ФРГ из видеосалонов, переводили наши переводчики в воинской части, озвучку накладывал через Панасоник 65(стерео), вот то были записи.pb.wtf



10-06-2019 20:16 Люди в черном 1, 2, 3 Скачать торрент  

дайте скоростиpb.wtf



27-09-2019 08:25 Люди в черном 1, 2, 3 Скачать торрент  

Скорости плиз!!!pb.wtf



26-06-2020 16:22 Люди в черном 1, 2, 3 Скачать торрент  

Раздайте кто нибудьpb.wtf



    Дорогой пользователь! Огромная просьба, поблагодарите релизера, оцените раздачу и оставьте свои комментарий, если Вы скачали Люди в черном 1, 2, 3 через торрент бесплатно!
    Комментировать посты могут только пользователи прошедшие не сложную регистрацию
    Показать сообщения:    

    Люди в черном 1, 2, 3 через торрент
    Скачать бесплатно Люди в черном 1, 2, 3
    Люди в черном 1, 2, 3 скачать торрент
    Люди в черном 1, 2, 3 смотреть онлайн
    Cкачать фильм Люди в черном 1, 2, 3 бесплатно
    Люди в черном 1, 2, 3 скачать торрент в хорошем качестве
    Люди в черном 1, 2, 3 смотреть онлайн бесплатно в хорошем качестве


    Вы не можете начинать темы
    Вы не можете отвечать на сообщения
    Вы не можете редактировать свои сообщения
    Вы не можете удалять свои сообщения
    Вы не можете голосовать в опросах
    Вы не можете прикреплять файлы к сообщениям
    Вы можете скачивать файлы