Достать ножи: Стеклянная луковица

MVO

Добыча

Дубляж

Уэнсдэй

1 сезон

Тор

Дубляж

13 клиническая

1 сезон

Жестокая ночь

MVO

Одни из нас

1 сезон

Deluxe

pack

Рекомендуем

30

Пиратка

ВАЖНО

ВАЖНО

Ghostwire

Пиратка

jed

RePack

nioh2

RePack

RDR2

RePack

NEED FOR SPEED™ PAYBACK

RePack

скачать торрент

Кинопоиск HD

Острые козырьки 6 сезон

6 сезон

FAR CRY 6

RePack

скачать торрент

Лицензия

скачать торрент

MVO

1

1 сезон

скачать торрент

1 сезон

скачать торрент

Лицензия

  

Между делом (Кен Скотт ) [2015, комедия, BDRip 1080p, Дубляж - Лицензия / iTunes]

Между делом через торрент pb.wtf

Размер: 13.36 GB | Добавлен: 7 лет 7 мес. назад | Торрент скачан:434 раза
Смотреть онлайн | Скачать | Поддержите нас   

03-06-2015 19:51 Между делом Скачать торрент  

Между делом / Unfinished Business«Продуктивная командировка. Реально»

Год выпуска: 2015
Страна: США
Жанр: комедия
Продолжительность: 01:30:58
Перевод: Дубляж - [Лицензия / iTunes]
Субтитры: английские (SDH), английские, английские (SDH),
Режиссер: Кен Скотт
Сценарий: Стив Конрад / Steve Conrad
Продюсер: Тодд Блэк / Todd Black, Джейсон Блюменталь / Jason Blumenthal, Энтони Катагас / Anthony Katagas, Арнон Милчен / Arnon Milchan, Стив Тиш / Steve Tisch
Оператор: Оливер Степлтон / Oliver Stapleton
Композитор: Алекс Вурман / Alex Wurman
В ролях:
Винс Вон (Dan Trunkman), Том Уилкинсон (Timothy McWinters), Дэйв Франко (Mike Pancake), Сиенна Миллер (Chuck Portnoy), Ник Фрост (Bill Whilmsley), Джеймс Марсден (Jim Spinch), Джун Рафаэль (Susan Trunkman), Бриттон Сир (Paul Trunkman), Элла Андерсон (Bess Trunkman), Кен Скотт (Tourist at German Hotel / Museum Tourist), Касия Малиновска (Craigslist Maid), Кармен Лопес (Actual Maid)

Описание:
Трудолюбивый владелец малого бизнеса и двое его коллег отправляются в Европу, чтобы совершить самую важную сделку в их жизни. Но обычная командировка превратилась в итоге в нечто невообразимое...
Бюджет::$35 000 000
Сборы в России:$607 690
Сборы в США: $10 116 687
Премьера (мир): 3 марта 2015



Качество: BDRip 1080p
Формат: MKV
Видео кодек: AVC
Аудио кодеk: AC3, DTS
Видео: , AVC, 1920x798 (2.40:1), 18700 kbps, 23,976 fps, 0,509 bpp,
Аудио №1: русский / AC3 / 5.1 / 48 kHz / 384 kbps / 16 bit ||
Аудио №2: английский / DTS / 5.1 / 48 kHz / 1510 kbps / 24 bit
Навигация по главам: есть

Код:

General
Unique ID                                : 170442901716931046143919616664594713971 (0x803A1BDBCA6683E09B588245134E8D73)
Complete name                            : D:\Торенты\Unfinished.Business.2015.1080p.BluRay.DTS.x264-CtrlHD.mkv
Format                                   : Matroska
Format version                           : Version 2
File size                                : 13.4 GiB
Duration                                 : 1h 30mn
Overall bit rate                         : 21.0 Mbps
Movie name                               : Unfinished Business
Encoded date                             : UTC 2015-06-03 18:40:08
Writing application                      : mkvmerge v7.9.0 ('Birds') 64bit
Writing library                          : libebml v1.3.1 + libmatroska v1.4.2

Video
ID                                       : 1
Format                                   : AVC
Format/Info                              : Advanced Video Codec
Format profile                           : [email protected]
Format settings, CABAC                   : Yes
Format settings, ReFrames                : 5 frames
Codec ID                                 : V_MPEG4/ISO/AVC
Duration                                 : 1h 30mn
Bit rate                                 : 18.7 Mbps
Width                                    : 1 920 pixels
Height                                   : 798 pixels
Display aspect ratio                     : 2.40:1
Frame rate                               : 23.976 fps
Color space                              : YUV
Chroma subsampling                       : 4:2:0
Bit depth                                : 8 bits
Scan type                                : Progressive
Bits/(Pixel*Frame)                       : 0.509
Stream size                              : 11.9 GiB (89%)
Writing library                          : x264 core 142 r2431+42 c69a006 tMod [[email protected] X86_64]
Encoding settings                        : cabac=1 / ref=5 / deblock=1:-3:-3 / analyse=0x3:0x133 / me=umh / subme=10 / psy=1 / fade_compensate=0.00 / psy_rd=0.90:0.00 / mixed_ref=1 / me_range=32 / chroma_me=1 / trellis=2 / 8x8dct=1 / cqm=0 / deadzone=21,11 / fast_pskip=0 / chroma_qp_offset=-2 / threads=6 / lookahead_threads=1 / sliced_threads=0 / nr=0 / decimate=0 / interlaced=0 / bluray_compat=0 / constrained_intra=0 / fgo=0 / bframes=8 / b_pyramid=2 / b_adapt=2 / b_bias=0 / direct=3 / weightb=1 / open_gop=0 / weightp=2 / keyint=250 / keyint_min=23 / scenecut=40 / intra_refresh=0 / rc=crf / mbtree=0 / crf=16.5000 / qcomp=0.60 / qpmin=0:0:0 / qpmax=69:69:69 / qpstep=4 / ip_ratio=1.20 / pb_ratio=1.10 / aq=4:0.85 / aq-sensitivity=10.00 / aq-factor=1.00:1.00:1.00 / aq2=0 / aq3=0
Language                                 : English
Default                                  : Yes
Forced                                   : No

Audio #1
ID                                       : 3
Format                                   : AC-3
Format/Info                              : Audio Coding 3
Mode extension                           : CM (complete main)
Codec ID                                 : A_AC3
Duration                                 : 1h 30mn
Bit rate mode                            : Constant
Bit rate                                 : 384 Kbps
Channel(s)                               : 6 channels
Channel positions                        : Front: L C R, Side: L R, LFE
Sampling rate                            : 48.0 KHz
Bit depth                                : 16 bits
Compression mode                         : Lossy
Stream size                              : 250 MiB (2%)
Language                                 : Russian
Default                                  : Yes
Forced                                   : No

Audio #2
ID                                       : 4
Format                                   : DTS
Format/Info                              : Digital Theater Systems
Codec ID                                 : A_DTS
Duration                                 : 1h 30mn
Bit rate mode                            : Constant
Bit rate                                 : 1 510 Kbps
Channel(s)                               : 6 channels
Channel positions                        : Front: L C R, Side: L R, LFE
Sampling rate                            : 48.0 KHz
Bit depth                                : 24 bits
Compression mode                         : Lossy
Stream size                              : 982 MiB (7%)
Language                                 : English
Default                                  : No
Forced                                   : No

Text #1
ID                                       : 2
Format                                   : UTF-8
Codec ID                                 : S_TEXT/UTF8
Codec ID/Info                            : UTF-8 Plain Text
Title                                    : SDH
Language                                 : English
Default                                  : No
Forced                                   : No

Text #2
ID                                       : 5
Format                                   : UTF-8
Codec ID                                 : S_TEXT/UTF8
Codec ID/Info                            : UTF-8 Plain Text
Language                                 : English
Default                                  : No
Forced                                   : No

Text #3
ID                                       : 6
Format                                   : UTF-8
Codec ID                                 : S_TEXT/UTF8
Codec ID/Info                            : UTF-8 Plain Text
Title                                    : SDH
Language                                 : English
Default                                  : No
Forced                                   : No

Menu
00:00:00.000                             : en:00:00:00.000
00:03:12.943                             : en:00:03:12.943
00:06:55.624                             : en:00:06:55.624
00:10:31.297                             : en:00:10:31.297
00:14:11.726                             : en:00:14:11.726
00:19:54.985                             : en:00:19:54.985
00:22:55.541                             : en:00:22:55.541
00:27:27.729                             : en:00:27:27.729
00:31:29.638                             : en:00:31:29.638
00:34:04.209                             : en:00:34:04.209
00:37:12.188                             : en:00:37:12.188
00:41:03.628                             : en:00:41:03.628
00:44:28.291                             : en:00:44:28.291
00:47:20.296                             : en:00:47:20.296
00:50:48.712                             : en:00:50:48.712
00:55:08.096                             : en:00:55:08.096
00:58:40.892                             : en:00:58:40.892
01:02:32.958                             : en:01:02:32.958
01:05:48.987                             : en:01:05:48.987
01:08:02.078                             : en:01:08:02.078
01:11:47.011                             : en:01:11:47.011
01:15:24.854                             : en:01:15:24.854
01:20:47.259                             : en:01:20:47.259
01:24:25.060                             : en:01:24:25.060

Скриншоты:



Скачать Между делом через торрент http://i70.fastpic.ru/big/2015/0603/e9/ca13c9aee12cceff2b3b07e5318616e9.jpg Скачать, смотреть онлайн Между делом бесплантно в хорошем качестве Описание:Трудолюбивый владелец малого бизнеса и двое его коллег отправляются в Европу, чтобы совершить самую важную сделку в их жизни. Но ... 10 10 8
Торрент: Зарегистрирован [2015-06-03 19:51] · скачан: 434 раз
Статус: √ проверено
Размер: 13.36 GB
Как cкачать? Как скачать Между делом через торрент | UTorrent

% Раздел Тема Автор DL S | L
Фильмы 2015 [DVDrip, WEB-DLRip, HDrip] [ 1.46 GB ] Между делом / Unfinished Business | Лицензия R5 | BDRip bober100 Скачать
1 | 0
Фильмы 2015 [DVDrip, WEB-DLRip, HDrip] [ 1.37 GB ] Между делом | Лицензия | HDRip, Дубляж - Лицензия / iTunes Ворон Скачать
1 | 0
Фильмы 2015 [DVDrip, WEB-DLRip, HDrip] [ 2.14 GB ] Между делом / Unfinished Business | iTunes | BDRip-AVC от potroks potroks Скачать
1 | 0
Фильмы (Blu-ray, BD-Remux, HDDVD) [ 21.77 GB ] Между делом | iTunes | 1080p / iTunes Ворон Скачать
1 | 0
Фильмы без перевода [ 37.25 GB ] Между делом | | 1080p killermax2013 Скачать
1 | 0

28-11-2019 20:33  


Отключить вcю реклaмy на сайте, в т.ч. и в плеере онлайн просмотра!

    Дорогой пользователь! Огромная просьба, поблагодарите релизера, оцените раздачу и оставьте свои комментарий, если Вы скачали Между делом через торрент бесплатно!!
    Комментировать посты могут только пользователи прошедшие не сложную регистрацию
    Показать сообщения:    


    Между делом через торрент
    Скачать бесплатно Между делом
    Между делом скачать торрент
    Между делом смотреть онлайн
    Cкачать фильм Между делом бесплатно
    Между делом скачать торрент в хорошем качестве
    Между делом смотреть онлайн бесплатно в хорошем качестве
    Вы не можете начинать темы
    Вы не можете отвечать на сообщения
    Вы не можете редактировать свои сообщения
    Вы не можете удалять свои сообщения
    Вы не можете голосовать в опросах
    Вы не можете прикреплять файлы к сообщениям
    Вы можете скачивать файлы
    Между делом [2015, комедия, BDRip 1080p, Дубляж - Лицензия / iTunes] смотреть онлайн, скачать торрент picoco.icu