Ссылка на приватное зеркало всего за 1$. Внимание количество ограничено!!!

iTunes

iTunes

iTunes

1

iTunes

iTunes

iTunes

iTunes

iTunes

30
pack

$ от Little Big

ВАЖНО

!!Акция!!

Alien_RageХит недели

RePack

Resident Evil 21

ИГРА 18+

pack

RePack

jed

!!Акция!!

Alien_Rage

RePack

fifa19

RePack

Assassins Creed: Odyssey

RePack

NEED FOR SPEED™ PAYBACK

4 сезон

9 сезон

Бесстыжие 9 сезон

Все сериалы

все сериалы на PB.wtf

RePack

FAR CRY 5
  

Мисс Переполох / She's Funny That Way (Питер Богданович ) [2014, комедия, WEB-DL 1080p, Дубляж - Лицензия / iTunes] pb.wtf

Мисс Переполох через торрент pb.wtf

Размер: 3.46 GB | Добавлен: 5 лет 1 мес. назад | Торрент скачан:378 раз
Скачать  

03-06-2015 19:59 Мисс Переполох Скачать торрент  


Мисс Переполох / She's Funny That Way«Ей хватит одной встречи, чтобы изменить вашу жизнь»

Год выпуска: 2014
Страна: США
Жанр: комедия
Продолжительность: 01:33:19
Перевод: Дубляж - [Лицензия / iTunes]
Режиссер: Питер Богданович
Сценарий: Питер Богданович / Peter Bogdanovich, Луиз Стрэттен / Louise Stratten
Продюсер: Джордж Дракулиас / George Drakoulias, Логан Леви / Logan Levy, Луиз Стрэттен / Louise Stratten, Холли Вирсма / Holly Wiersma, Уэс Андерсон / Wes Anderson
Оператор: Ярон Орбах / Yaron Orbach
Композитор: Эд Ширмёр / Ed Shearmur
В ролях:
Оуэн Уилсон (Arnold), Имоджен Путс (Izzy), Кэтрин Хан (Delta Simmons), Уилл Форте (Joshua Fleet), Рис Иванс (Seth Gilbert), Дженнифер Энистон (Jane), Сибилл Шепард (Nettie Patterson), Остин Пендлтон (Judge Pendergast), Джоанна Ламли (Vivian Claremont), Ричард Льюис (Al Patterson), Иллиана Даглас (Judy), Грейдон Картер (Limo Driver)

Описание:
На первый взгляд может показаться, что Изабелла - простая девушка по вызову из Бруклина. Но, ворвавшись в тихую и размеренную жизнь бродвейского режиссера Альберта, она буквально перевернет ее вверх дном, станет причиной нескольких скандалов и раскроет все немыслимые семейные тайны. Если вы о ней еще не слышали, тогда она идет к вам!
Сборы в России:$819 144
Премьера (мир): 29 августа 2014



Качество: WEB-DL 1080p
Формат: MKV
Видео кодек: AVC
Аудио кодеk: AC3
Видео: , AVC, 1920x1036 (1.853), 4823 kbps, 24 fps, 0,101 bpp,
Аудио: русский / AC3 / 5.1 / 48 kHz / 384 kbps / 16 bit ||
Навигация по главам: есть

Код:

General
Unique ID                                : 178451523238159873272974809839297852948 (0x864083628E39EFCBAA6D788DCBC77614)
Complete name                            : D:\Торенты\M1ss.Pepep0l0h.2014.WEB-DL.1080p.mkv
Format                                   : Matroska
Format version                           : Version 4 / Version 2
File size                                : 3.46 GiB
Duration                                 : 1h 33mn
Overall bit rate                         : 5 313 Kbps
Encoded date                             : UTC 2015-06-03 19:01:51
Writing application                      : mkvmerge v6.9.1 ('Blue Panther') 64bit built on Apr 18 2014 18:23:38
Writing library                          : libebml v1.3.0 + libmatroska v1.4.1

Video
ID                                       : 1
Format                                   : AVC
Format/Info                              : Advanced Video Codec
Format profile                           : High@L4.0
Format settings, CABAC                   : Yes
Format settings, ReFrames                : 4 frames
Codec ID                                 : V_MPEG4/ISO/AVC
Duration                                 : 1h 33mn
Bit rate                                 : 4 823 Kbps
Width                                    : 1 920 pixels
Height                                   : 1 036 pixels
Display aspect ratio                     : 1.853
Frame rate                               : 24.000 fps
Color space                              : YUV
Chroma subsampling                       : 4:2:0
Bit depth                                : 8 bits
Scan type                                : Progressive
Bits/(Pixel*Frame)                       : 0.101
Stream size                              : 3.14 GiB (91%)
Language                                 : English
Default                                  : Yes
Forced                                   : No
Color primaries                          : BT.709-5, BT.1361, IEC 61966-2-4, SMPTE RP177
Transfer characteristics                 : BT.709-5, BT.1361
Matrix coefficients                      : BT.709-5, BT.1361, IEC 61966-2-4 709, SMPTE RP177

Audio
ID                                       : 2
Format                                   : AC-3
Format/Info                              : Audio Coding 3
Mode extension                           : CM (complete main)
Codec ID                                 : A_AC3
Duration                                 : 1h 33mn
Bit rate mode                            : Constant
Bit rate                                 : 384 Kbps
Channel(s)                               : 6 channels
Channel positions                        : Front: L C R, Side: L R, LFE
Sampling rate                            : 48.0 KHz
Bit depth                                : 16 bits
Compression mode                         : Lossy
Stream size                              : 256 MiB (7%)
Language                                 : Russian
Default                                  : Yes
Forced                                   : No

Menu
00:00:00.000                             : en:Глава 1
00:02:40.000                             : en:Глава 2
00:08:48.000                             : en:Глава 3
00:15:33.000                             : en:Глава 4
00:21:35.000                             : en:Глава 5
00:27:40.000                             : en:Глава 6
00:34:42.000                             : en:Глава 7
00:39:52.000                             : en:Глава 8
00:48:24.000                             : en:Глава 9
00:52:24.000                             : en:Глава 10
00:57:30.000                             : en:Глава 11
01:02:15.000                             : en:Глава 12
01:06:39.000                             : en:Глава 13
01:12:09.000                             : en:Глава 14
01:18:01.000                             : en:Глава 15
01:20:28.000                             : en:Глава 16

Скриншоты:


© Оформление by Ворон
pb.wtf



Скачать Мисс Переполох через торрент http://pic.kartinco.top/images/6/ordi9.jpg Скачать фильм Мисс Переполох через торрент бесплантно в хорошем качестве Описание:На первый взгляд может показаться, что Изабелла - простая девушка по вызову из Бруклина. Но, ворвавшись в тихую и размеренную ... 9.1 10 11
Info! Золотая раздача, скачанное не засчитывается.
Торрент: Зарегистрирован [2015-06-03 19:59] · скачан: 378 раз
Статус: √ проверено
Размер: 3.46 GB
Как cкачать? Как скачать Мисс Переполох через торрент | qTorrent

28-11-2019 20:33  

Отключить всю рекламу на сайте

    Дорогой пользователь! Огромная просьба, поблагодарите релизера, оцените раздачу и оставьте свои комментарий, если Вы скачали Мисс Переполох через торрент бесплатно! Внесите свою лепту в развитие PiratBit!
    Комментировать посты могут только пользователи прошедшие не сложную регистрацию
    Показать сообщения:    

    Мисс Переполох через торрент
    Скачать бесплатно Мисс Переполох
    Мисс Переполох скачать торрент
    Мисс Переполох смотреть онлайн
    Cкачать фильм Мисс Переполох бесплатно
    Мисс Переполох скачать торрент в хорошем качестве
    Мисс Переполох смотреть онлайн бесплатно в хорошем качестве


    Вы не можете начинать темы
    Вы не можете отвечать на сообщения
    Вы не можете редактировать свои сообщения
    Вы не можете удалять свои сообщения
    Вы не можете голосовать в опросах
    Вы не можете прикреплять файлы к сообщениям
    Вы можете скачивать файлы