Ссылка на приватное зеркало нашего сайта всего за 1$. Внимание количество ограничено!!!

2 сезон

iTunes

1 сезон

1

2 сезон

2 сезон

iTunes

1 сезон

RePack

30

Новинка

ВАЖНО

ИГРА 18+

pack

RePack

MK11
pack

Забери бонус

RePack

jed

!!Акция!!

Alien_Rage

RePack

fifa19

RePack

Assassins Creed: Odyssey

RePack

NEED FOR SPEED™ PAYBACK

4 сезон

9 сезон

Бесстыжие 9 сезон

Все сериалы

все сериалы на PB.wtf

RePack

FAR CRY 5
  

Восстание Техаса / Texas Rising / Сезон: 1 / Серии: 1-5 из 5 (Роланд Жоффе) [2015г., драма, вестерн, WEB-DLRip 720p, Профессиональный (многоголосый)] [Lostfilm] pb.wtf

Восстание Техаса через торрент pb.wtf

Размер: 12.79 GB | Добавлен: 5 лет 5 мес. назад | Торрент скачан:134 раза
Скачать  

04-06-2015 15:13 Восстание Техаса Скачать торрент  

Восстание Техаса / Texas Rising

Год выпуска: 2015

Страна: США

Жанр: драма, вестерн

Продолжительность: ~ 01:30:00

Перевод: Профессиональный (многоголосый)
Режиссер: Роланд Жоффе

В ролях: Билл Пэкстон (Sam Houston), Стивен Монро Тейлор (Gator), Тревор Донован (Kit Acklin), Роб Морроу (Colonel James Fannin), Amen Igbinosun (Nate), Джеффри Дин Морган («Deaf» Smith), Оливье Мартинес (Antonio Lopez de Santa Anna), Томас Джейн (James Wykoff), Криспин Гловер (Mosley Baker), Джереми Дэвис (Ephraim Knowles), Риз Койро (Vern Elwood), Кристофер МакДональд (Henry Karnes)




Описание:
Многие известные герои войны за независимость Техаса погибли в битве за Аламо в 1836 году. Действие «Восстания Техаса» разворачивается после окончания сражения, в котором мексиканские солдаты под предводительством жестокого генерала Санта-Анны (Оливье Мартинес) расправились с защитниками города. В живых из всего населения Аламо остались лишь 16 человек. Отважный генерал Сэм Хьюстон (Билл Пэкстон) был избран главнокомандующим армии борцов за независимость. Его помощниками стали лучший друг, техасский рейнджер по имени Деф Смит (Джеффри Дин Морган), и легендарная Эмили Уэст, «Желтая роза Техаса», сыгравшая не последнюю роль в войне за независимость.




Рейтинг:





Качество: WEB-DLRip 720p

Формат: MPEG-4

Видео кодек: AVC

Аудио кодек: AAC LC

Видео: AVC, 1280x720 (16:9), 4000 kbps, 23,976 fps, 0,181 bpp

Аудио: AAC LC / 2.0 / 48 kHz / 255 kbps /




скриншот   скриншот   скриншот  
Формат : MPEG-4
Профиль формата : Base Media
Идентификатор кодека : isom
Размер файла : 2,70 Гбайт
Продолжительность : 1 ч. 32 м.
Режим общего битрейта : Переменный
Общий поток : 4193 Кбит/сек
Коллекция : Восстание Техаса
Сезон : 1
Альбом : Восстание Техаса
Альбом/Исполнитель : Восстание Техаса
Часть : 1
Часть/Положение : 1
Трек : Из пепла
Трек/Положение : 1
Исполнитель : Восстание Техаса
Описание : Многие известные герои войны за независимость Техаса погибли в битве за Аламо в 1836 году. Действие «Восстания Техаса» разворачивается после окончания сражения, в котором мексиканские солдаты под предводительством жестокого генерала Санта-Анны.
Дата записи : 2015
Дата кодирования : UTC 2015-05-30 07:42:15
Дата пометки : UTC 2015-05-30 07:42:15
Программа кодирования : Yamb 2.1.0.0 [http://yamb.unite-video.com]
Обложка : Yes
Part_ID : 101

Видео
Идентификатор : 1
Формат : AVC
Формат/Информация : Advanced Video Codec
Профиль формата : High@L4.1
Параметр CABAC формата : Нет
Параметр ReFrames формата : 4 кадра
Идентификатор кодека : avc1
Идентификатор кодека/Информация : Advanced Video Coding
Продолжительность : 1 ч. 32 м.
Битрейт : 4000 Кбит/сек
Максимальный битрейт : 6314 Кбит/сек
Ширина : 1280 пикселей
Высота : 720 пикселей
Соотношение сторон : 16:9
Режим частоты кадров : Постоянный
Частота кадров : 23,976 кадра/сек
Цветовое пространство : YUV
Субдискретизация насыщенности : 4:2:0
Битовая глубина : 8 бит
Тип развёртки : Прогрессивная
Бит/(Пиксели*Кадры) : 0.181
Размер потока : 2,53 Гбайт (94%)
Заголовок : Imported with GPAC 0.4.6-DEV (internal rev. 5)
Библиотека кодирования : x264 core 112 r1834 a51816a
Настройки программы : cabac=0 / ref=3 / deblock=1:0:0 / analyse=0x3:0x113 / me=hex / subme=7 / psy=1 / psy_rd=1.00:0.00 / mixed_ref=1 / me_range=16 / chroma_me=1 / trellis=1 / 8x8dct=1 / cqm=0 / deadzone=21,11 / fast_pskip=1 / chroma_qp_offset=-2 / threads=12 / sliced_threads=0 / nr=0 / decimate=1 / interlaced=0 / constrained_intra=0 / bframes=3 / b_pyramid=2 / b_adapt=1 / b_bias=0 / direct=1 / weightb=1 / open_gop=0 / weightp=2 / keyint=250 / keyint_min=25 / scenecut=40 / intra_refresh=0 / rc_lookahead=40 / rc=abr / mbtree=1 / bitrate=4000 / ratetol=1.0 / qcomp=0.60 / qpmin=0 / qpmax=51 / qpstep=4 / vbv_maxrate=5000 / vbv_bufsize=2000 / ip_ratio=1.40 / aq=1:1.00 / nal_hrd=none
Дата кодирования : UTC 2015-05-26 02:32:18
Дата пометки : UTC 2015-05-30 07:42:24

Аудио
Идентификатор : 2
Формат : AAC
Формат/Информация : Advanced Audio Codec
Профиль формата : LC
Идентификатор кодека : 40
Продолжительность : 1 ч. 32 м.
Вид битрейта : Переменный
Битрейт : 256 Кбит/сек
Максимальный битрейт : 334 Кбит/сек
Каналы : 2 канала
Расположение каналов : Front: L R
Частота : 48,0 КГц
Метод сжатия : С потерями
Размер потока : 169 Мбайт (6%)
Дата кодирования : UTC 2015-05-30 07:42:22
Дата пометки : UTC 2015-05-30 07:42:24
[/code]
«Восстание Техаса» — это новый драматический вестерн канала History, рассказывающий историю борьбы за независимость, развернувшуюся в Техасе в XIX веке. Тогда эту территорию населяли американцы, называвшие себя техано, и воинственные племена команчей. Войска соседней Мексики постоянно совершали набеги на поселения Техаса, дабы завоевать эти земли. Команду мини-сериала возглавил двукратный номинант на премию «Оскар» Роланд Жоффе. Благодаря реалистичности и точно воссозданной атмосфере эпохи техасских рейнджеров шоу понравится как любителям исторических драм, так и тем, кто ценит классические вестерны.
Внимание! Раздача ведётся путём добавления новых серий; при каждом добавлении создаётся новый торрент-файл. Чтобы начать дозакачку новой серии, пользователям необходимо сделать следующее:
1) остановить скачивание,
2) удалить старый торрент-файл у себя из клиента (старые серии удалять не надо),
3) скачать новый торрент-файл и запустить его у себя в клиенте вместо старого, при этом указать клиенту путь в старую папку куда и должно происходить скачивание новых серий.
Ваш клиент при этом должен произвести хеширование (проверку) старой папки (если не производит сам - помогите ему сделать это), и будет докачивать только те серии которых у вас ещё нет. Старые серии при этом не удаляются, а продолжают раздаваться!
Eсли вы уже удалили старые серии, то предотвратить повторную закачку старых серий можно, отжав галочку в соответствующих местах при запуске нового торрента.



pb.wtf



Скачать Восстание Техаса через торрент http://pic.kartinco.top/images/11/lqkkx.jpg Скачать фильм Восстание Техаса через торрент бесплантно в хорошем качестве Описание: Многие известные герои войны за независимость Техаса погибли в битве за Аламо в 1836 году. Действие «Восстания Техаса» ... 8.8 10 9
Торрент: Зарегистрирован [2015-06-20 10:45] · скачан: 134 раз
Статус: # сомнительно
Размер: 12.79 GB
Как cкачать? Как скачать Восстание Техаса через торрент | qTorrent

% Раздел Тема Автор DL S | L
Зарубежные сериалы [ 96.45 GB ] Восстание Техаса / Texas Rising/ Сезон: 1 / Серии: 1-5 из 5 [2015 BD-Remux] MVO Pavlin Скачать
1 | 0


Последний раз редактировалось: 10oN (2015-06-20 10:45), всего редактировалось 3 раз(а)

28-11-2019 20:33  

Отключить всю рекламу на сайте

06-06-2015 14:59 Восстание Техаса Скачать торрент  

Добавлена 3-я серия!pb.wtf



07-06-2015 10:01 Восстание Техаса Скачать торрент  

Andru195, перед тем как писать, нужно думать, а не пустословитьpb.wtf



08-06-2015 01:25 Восстание Техаса Скачать торрент  

Цитата:

1280x720

Сомнительно за то, что в лостфильме одни идиотыpb.wtf



08-06-2015 06:22 Восстание Техаса Скачать торрент  

Messa-fan писал(а):

Цитата:

1280x720

Сомнительно за то, что в лостфильме одни идиоты

Я не проверял, но такую инфу выдает FlashRelease скриншот  

P.S. Проверил на LA тот же размер.pb.wtf



08-06-2015 09:44 Восстание Техаса Скачать торрент  

Ten0N, так к вам претензий нет, я же говорюpb.wtf



15-06-2015 07:04 Восстание Техаса Скачать торрент  

Добавлена 4-я серия!pb.wtf



20-06-2015 10:46 Восстание Техаса Скачать торрент  

Добавлена 5-я серия!pb.wtf



    Дорогой пользователь! Огромная просьба, поблагодарите релизера, оцените раздачу и оставьте свои комментарий, если Вы скачали Восстание Техаса через торрент бесплатно! Внесите свою лепту в развитие PiratBit!
    Комментировать посты могут только пользователи прошедшие не сложную регистрацию
    Показать сообщения:    

    Восстание Техаса через торрент
    Скачать бесплатно Восстание Техаса
    Восстание Техаса скачать торрент
    Восстание Техаса смотреть онлайн
    Cкачать фильм Восстание Техаса бесплатно
    Восстание Техаса скачать торрент в хорошем качестве
    Восстание Техаса смотреть онлайн бесплатно в хорошем качестве


    Вы не можете начинать темы
    Вы не можете отвечать на сообщения
    Вы не можете редактировать свои сообщения
    Вы не можете удалять свои сообщения
    Вы не можете голосовать в опросах
    Вы не можете прикреплять файлы к сообщениям
    Вы можете скачивать файлы