2 сезон

iTunes

MVO

1

2 сезон

iTunes

iTunes

1 сезон

RePack

30

Новинка

ВАЖНО

ИГРА 18+

pack

RePack

MK11
pack

Легкие деньги

RePack

jed

RePack

fifa19

RePack

RDR2

RePack

NEED FOR SPEED™ PAYBACK

4 сезон

9 сезон

Бесстыжие 9 сезон

Все сериалы

все сериалы на PB.wtf

RePack

FAR CRY 5

Anonymous, добрый вечер, мы не успеваем собрать деньги на оплату серверов за декабрь и январь, помогите нам пожалуйста в это трудное время. В качестве благодарности мы отключим Вам всю рекламу на сайте (укажите свой ник в строку Ваше имя)!

×
  
Magnet ссылка

Желания женщин / Women Desires Part.2 [2015 г., Adult erotic music clips, WEB-DLRip 1080p, Оригинал] pb.wtf

Желания женщин через торрент pb.wtf

Размер: 3.83 GB | Добавлен: 5 лет 7 мес. назад | Торрент скачан:299 раз
Скачать  

04-06-2015 15:15 Желания женщин Скачать торрент  

Желания женщин / Women Desires Part.2
Год выпуска: 2015
Страна: All World
Жанр: Adult erotic music clips
Продолжительность: 02:42:07
Перевод: Оригинал

Описание: Много ли на свете вещей прекраснее, чем красота женщины? В этих клипах - загадочная одухотворённость, манящая нежность, бодрящая весёлость, совершенство форм и неповторимость женского начала! Изящество и простота, ностальгичность и жизнерадостность, игривость и величие, молодость и зрелость, преданность и лукавость - клипы на любой вкус. (Часть 2)
Качество: WEB-DLRip 1080p
Формат: MP4
Видео кодек: AVC
Аудио кодек: AAC
Видео: AVC, 1280x720,1920x1080 (16:9), 25.000 fps, 3 555 -5 000Kbps (0.154 bit/pixel)
Аудио#1: AAC LC, 44.1 KHz, 2 ch, 96.0 -256 Kbps, CBR ,VBR(English)
01. Eveline - Bathroom Love [11:29]
02. Misha Key - Fly Away [11:21]
03. Oliana - Hasti [08:23]
04. Caress 9 (Seduction Sequence) [04:17]
05. Liania - Numerani [06:19]
06. Chloe Brooke - A Model for all days [03:12]
07. Helen Grace - Dancing [04:01]
08. Abby - After her Shower [02:46]
09. Belinda [04:36]
10. John Waite - Womans Touch [03:48]
11. Caress 10 (Forbidden Sequence) [04:27]
12. Grapes - I dunno (Hot Oven) [02:13]
13. Spider Games (Александр Ивахин) [02:08]
14. Tamaya - Vana addition [04:33]
15. Caress 11 (Etheral Sequence) [04:00]
16. Hate Or Glory by Evgenyi Demenev [02:01]
17. Malina A - Spielen [09:59]
18. Carlye Denise - Vintage Voyeur [04:02]
19. Delicate Libertine - Jeana Turner [09:36]
20. IS TROPICAL - Lover's Cave [03:51]
21. Mia - Nebbouh [03:06]
22. Sandra Lauver - Kedvteles [04:11]
23. Viola Bailey - Benue [05:02]
24. Michelle - Bagno [13:00]
25. Pretty Green - Dreadlock Girl [04:10]
26. SaBo-FX - Eyecandy [05:52]
27. Natasha Anastasia - Dancing Disco [07:13]
28. Pinuprincess World [03:27]
29. Rossella Visconti - Erotic Game [05:10]
30. Vikencia by Jiri Ruzek [03:40]
скриншот   скриншот   скриншот   скриншот   скриншот   скриншот  
скриншот   скриншот   скриншот   скриншот   скриншот   скриншот  

Общее
Полное имя : C:\Раздача\Клипы\Women Desires Part.2 (2015)\01. Eveline - Bathroom Love.mp4
Формат : MPEG-4
Профиль формата : Base Media
Идентификатор кодека : isom
Размер файла : 305 Мбайт
Продолжительность : 11 м.
Режим общего битрейта : Переменный
Общий поток : 3713 Кбит/сек
Программа кодирования : Lavf55.19.104

Видео
Идентификатор : 1
Формат : AVC
Формат/Информация : Advanced Video Codec
Профиль формата : Main@L3.1
Параметр CABAC формата : Да
Параметр ReFrames формата : 4 кадра
Идентификатор кодека : avc1
Идентификатор кодека/Информация : Advanced Video Coding
Продолжительность : 11 м.
Битрейт : 3555 Кбит/сек
Ширина : 1280 пикселей
Высота : 720 пикселей
Соотношение сторон : 16:9
Режим частоты кадров : Постоянный
Частота кадров : 25,000 кадров/сек
Цветовое пространство : YUV
Субдискретизация насыщенности : 4:2:0
Битовая глубина : 8 бит
Тип развёртки : Прогрессивная
Бит/(Пиксели*Кадры) : 0.154
Размер потока : 292 Мбайт (96%)
Библиотека кодирования : x264 core 119
Настройки программы : cabac=1 / ref=1 / deblock=1:0:0 / analyse=0x1:0x1 / me=dia / subme=1 / psy=1 / psy_rd=1.00:0.00 / mixed_ref=0 / me_range=16 / chroma_me=1 / trellis=0 / 8x8dct=0 / cqm=0 / deadzone=21,11 / fast_pskip=1 / chroma_qp_offset=0 / threads=6 / sliced_threads=0 / nr=0 / decimate=1 / interlaced=0 / bluray_compat=0 / constrained_intra=0 / bframes=3 / b_pyramid=2 / b_adapt=1 / b_bias=0 / direct=1 / weightb=1 / open_gop=0 / weightp=1 / keyint=250 / keyint_min=25 / scenecut=40 / intra_refresh=0 / rc=abr / mbtree=0 / bitrate=3555 / ratetol=1.0 / qcomp=0.60 / qpmin=0 / qpmax=69 / qpstep=4 / ip_ratio=1.40 / pb_ratio=1.30 / aq=1:1.00
Язык : English

Аудио
Идентификатор : 2
Формат : AAC
Формат/Информация : Advanced Audio Codec
Профиль формата : LC
Идентификатор кодека : 40
Продолжительность : 11 м.
Вид битрейта : Переменный
Битрейт : 151 Кбит/сек
Максимальный битрейт : 192 Кбит/сек
Каналы : 2 канала
Расположение каналов : Front: L R
Частота : 44,1 КГц
Метод сжатия : С потерями
Размер потока : 12,4 Мбайт (4%)
Язык : English

Общее
Полное имя : C:\Раздача\Клипы\Women Desires Part.2 (2015)\03. Oliana - Hasti.mp4
Формат : MPEG-4
Профиль формата : Base Media
Идентификатор кодека : isom
Размер файла : 303 Мбайт
Продолжительность : 8 м. 23 с.
Общий поток : 5044 Кбит/сек
Программа кодирования : Lavf55.49.100

Видео
Идентификатор : 1
Формат : AVC
Формат/Информация : Advanced Video Codec
Профиль формата : Baseline@L4.0
Параметр CABAC формата : Нет
Параметр ReFrames формата : 3 кадра
Идентификатор кодека : avc1
Идентификатор кодека/Информация : Advanced Video Coding
Продолжительность : 8 м. 23 с.
Битрейт : 5000 Кбит/сек
Ширина : 1920 пикселей
Высота : 1080 пикселей
Соотношение сторон : 16:9
Режим частоты кадров : Постоянный
Частота кадров : 25,000 кадров/сек
Цветовое пространство : YUV
Субдискретизация насыщенности : 4:2:0
Битовая глубина : 8 бит
Тип развёртки : Прогрессивная
Бит/(Пиксели*Кадры) : 0.096
Размер потока : 297 Мбайт (98%)
Библиотека кодирования : x264 core 142 r2 ea0ca51
Настройки программы : cabac=0 / ref=3 / deblock=1:0:0 / analyse=0x1:0x111 / me=hex / subme=7 / psy=1 / psy_rd=1.00:0.00 / mixed_ref=1 / me_range=16 / chroma_me=1 / trellis=1 / 8x8dct=0 / cqm=0 / deadzone=21,11 / fast_pskip=1 / chroma_qp_offset=-2 / threads=8 / lookahead_threads=1 / sliced_threads=0 / nr=0 / decimate=1 / interlaced=0 / bluray_compat=0 / constrained_intra=0 / bframes=0 / weightp=0 / keyint=250 / keyint_min=25 / scenecut=40 / intra_refresh=0 / rc_lookahead=40 / rc=abr / mbtree=1 / bitrate=5000 / ratetol=1.0 / qcomp=0.60 / qpmin=0 / qpmax=69 / qpstep=4 / ip_ratio=1.40 / aq=1:1.00
Язык : English

Аудио
Идентификатор : 2
Формат : AAC
Формат/Информация : Advanced Audio Codec
Профиль формата : LC
Идентификатор кодека : 40
Продолжительность : 8 м. 23 с.
Duration_LastFrame : -10 мс.
Вид битрейта : Постоянный
Битрейт : 96,0 Кбит/сек
Каналы : 2 канала
Расположение каналов : Front: L R
Частота : 44,1 КГц
Метод сжатия : С потерями
Размер потока : 5,76 Мбайт (2%)
Язык : English

pb.wtf



Скачать Желания женщин через торрент http://pic.kartinco.top/images/11/pl22e.jpg Скачать фильм Желания женщин через торрент бесплантно в хорошем качестве Описание: Много ли на свете вещей прекраснее, чем красота женщины? В этих клипах - загадочная одухотворённость, манящая нежность, бодрящая ... 9.2 10 15
Info! Золотая раздача, скачанное не засчитывается.
Торрент: Зарегистрирован [2015-06-04 15:15] · скачан: 299 раз
Статус: √ проверено
Размер: 3.83 GB
Как cкачать? Как скачать Желания женщин через торрент | UTorrent

28-11-2019 20:33  

Отключить всю рекламу на сайте

04-06-2015 16:56 Желания женщин Скачать торрент  

скорость где pb.wtf



    Дорогой пользователь! Огромная просьба, поблагодарите релизера, оцените раздачу и оставьте свои комментарий, если Вы скачали Желания женщин через торрент бесплатно! Внесите свою лепту в развитие PiratBit!
    Комментировать посты могут только пользователи прошедшие не сложную регистрацию
    Показать сообщения:    

    Желания женщин через торрент
    Скачать бесплатно Желания женщин
    Желания женщин скачать торрент
    Желания женщин смотреть онлайн
    Cкачать фильм Желания женщин бесплатно
    Желания женщин скачать торрент в хорошем качестве
    Желания женщин смотреть онлайн бесплатно в хорошем качестве


    Вы не можете начинать темы
    Вы не можете отвечать на сообщения
    Вы не можете редактировать свои сообщения
    Вы не можете удалять свои сообщения
    Вы не можете голосовать в опросах
    Вы не можете прикреплять файлы к сообщениям
    Вы можете скачивать файлы