Ссылка на приватное зеркало нашего сайта всего за 1$. Внимание количество ограничено!!!

2 сезон

iTunes

1 сезон

1

iTunes

iTunes

iTunes

1 сезон

RePack

30

ИГРА 18+

pack

ВАЖНО

!!Акция!!

Alien_RageХит недели

RePack

MK11
pack

Забери бонус

RePack

jed

!!Акция!!

Alien_Rage

RePack

fifa19

RePack

Assassins Creed: Odyssey

RePack

NEED FOR SPEED™ PAYBACK

4 сезон

9 сезон

Бесстыжие 9 сезон

Все сериалы

все сериалы на PB.wtf

RePack

FAR CRY 5
  

Конская голова / Лихорадка / Horsehead (Ромейн Бассет ) [2014, ужасы, фэнтези, HDRip, Любительский (двухголосый) [2D] pb.wtf

Конская голова через торрент pb.wtf

Размер: 1.45 GB | Добавлен: 5 лет 4 мес. назад | Торрент скачан:194 раза
Скачать  

04-06-2015 17:38 Конская голова Скачать торрент  


Конская голова / Лихорадка / Horsehead


ИНФОРМАЦИЯ:
Год выпуска: 2014
Страна: Франция
Жанр: ужасы, фэнтези
Продолжительность: 01:35:55
Перевод: Любительский (двухголосый) [2D]
Режиссер: Ромейн Бассет

В Ролях:


Лилия-Флёр Пуанто (Jessica), Катриона МакКолл (Catelyn), Мюррэй Хэд (Jim), Гала Бессон (Rose), Фуад Эт Аату (Winston), Вернон Добчефф (George), Филипп Наон (Priest), Джо Шеридан (Doctor), Пол Бэнди (Winston, озвучка), Эммануэль Бонами (Horsehead), Шэйн Вудворд (Jessica's Boyfriend), Нэйтан Уиллкокс (Pr Sean F. Rutledge)

Описание:
С самого детства Джессику преследуют повторяющиеся ночные кошмары. Девушка хочет разобраться, что же они означают и приступает к изучению осознанных сновидений с помощью авторитетного специалиста. Вскоре ей открываются страшные тайны прошлого своей семьи.


ТЕХ.ДАННЫЕ:
Качество: HDRip
Формат: AVI
Видео кодек: XviD
Аудио кодек: AC3
Видео: XviD, 720x304 (2.35:1), 1684 kbps, 23,976 fps, 0,321 bpp
Аудио №1: AC3 / 2.0 / 48 kHz / 192 kbps / Russian
Аудио №2: AC3 / 2.0 / 48 kHz / 192 kbps / English



Код:

General
Complete name                            : D:\Торенты\Horsehead.2014.L2.HDRip.avi
Format                                   : AVI
Format/Info                              : Audio Video Interleave
File size                                : 1.45 GiB
Duration                                 : 1h 35mn
Overall bit rate                         : 2 165 Kbps
Writing application                      : VirtualDubMod 1.5.10.3 | www.virtualdub-fr.org || (build 2550/release)
Writing library                          : VirtualDubMod build 2550/release

Video
ID                                       : 0
Format                                   : MPEG-4 Visual
Format profile                           : Advanced Simple@L5
Format settings, BVOP                    : 1
Format settings, QPel                    : No
Format settings, GMC                     : No warppoints
Format settings, Matrix                  : Custom
Codec ID                                 : XVID
Codec ID/Hint                            : XviD
Duration                                 : 1h 35mn
Bit rate                                 : 1 685 Kbps
Width                                    : 720 pixels
Height                                   : 304 pixels
Display aspect ratio                     : 2.35:1
Frame rate                               : 23.976 fps
Color space                              : YUV
Chroma subsampling                       : 4:2:0
Bit depth                                : 8 bits
Scan type                                : Progressive
Compression mode                         : Lossy
Bits/(Pixel*Frame)                       : 0.321
Stream size                              : 1.13 GiB (78%)
Writing library                          : XviD 73

Audio #1
ID                                       : 1
Format                                   : AC-3
Format/Info                              : Audio Coding 3
Mode extension                           : CM (complete main)
Codec ID                                 : 2000
Duration                                 : 1h 35mn
Bit rate mode                            : Constant
Bit rate                                 : 192 Kbps
Channel(s)                               : 2 channels
Channel positions                        : Front: L R
Sampling rate                            : 48.0 KHz
Bit depth                                : 16 bits
Compression mode                         : Lossy
Stream size                              : 132 MiB (9%)
Alignment                                : Split accross interleaves

Audio #2
ID                                       : 2
Format                                   : AC-3
Format/Info                              : Audio Coding 3
Mode extension                           : CM (complete main)
Codec ID                                 : 2000
Duration                                 : 1h 35mn
Bit rate mode                            : Constant
Bit rate                                 : 192 Kbps
Channel(s)                               : 2 channels
Channel positions                        : Front: L R
Sampling rate                            : 48.0 KHz
Bit depth                                : 16 bits
Compression mode                         : Lossy
Stream size                              : 132 MiB (9%)
Alignment                                : Split accross interleaves

Скриншоты:


© Оформление by Ворон
pb.wtf



Скачать Конская голова через торрент http://pic.kartinco.top/images/6/ordi9.jpg Скачать фильм Конская голова через торрент бесплантно в хорошем качестве Описание: С самого детства Джессику преследуют повторяющиеся ночные кошмары. Девушка хочет разобраться, что же они означают и приступает к ... 8.8 10 6
Торрент: Зарегистрирован [2015-06-04 17:38] · скачан: 194 раз
Статус: T временная
Размер: 1.45 GB
Как cкачать? Как скачать Конская голова через торрент | qTorrent

28-11-2019 20:33  

Отключить всю рекламу на сайте

    Дорогой пользователь! Огромная просьба, поблагодарите релизера, оцените раздачу и оставьте свои комментарий, если Вы скачали Конская голова через торрент бесплатно! Внесите свою лепту в развитие PiratBit!
    Комментировать посты могут только пользователи прошедшие не сложную регистрацию
    Показать сообщения:    

    Конская голова через торрент
    Скачать бесплатно Конская голова
    Конская голова скачать торрент
    Конская голова смотреть онлайн
    Cкачать фильм Конская голова бесплатно
    Конская голова скачать торрент в хорошем качестве
    Конская голова смотреть онлайн бесплатно в хорошем качестве


    Вы не можете начинать темы
    Вы не можете отвечать на сообщения
    Вы не можете редактировать свои сообщения
    Вы не можете удалять свои сообщения
    Вы не можете голосовать в опросах
    Вы не можете прикреплять файлы к сообщениям
    Вы можете скачивать файлы