2 сезон

iTunes

1 сезон

1

iTunes

iTunes

iTunes

1 сезон

RePack

30

ИГРА 18+

pack

ВАЖНО

!!Акция!!

Alien_RageХит недели

RePack

MK11
pack

Забери бонус

RePack

jed

!!Акция!!

Alien_Rage

RePack

fifa19

RePack

Assassins Creed: Odyssey

RePack

NEED FOR SPEED™ PAYBACK

4 сезон

9 сезон

Бесстыжие 9 сезон

Все сериалы

все сериалы на PB.wtf

RePack

FAR CRY 5
  

Добро пожаловать в рай / Порок / Viсе (Брайан А Миллер / Brian A Miller) [2014, США, фантастика, боевик, триллер, BDRip 1080p, Дубляж] / Чистый звук + ENG pb.wtf

Добро пожаловать в рай через торрент pb.wtf

Размер: 6.68 GB | Добавлен: 5 лет 4 мес. назад | Торрент скачан:479 раз
Скачать  

05-06-2015 02:48 Добро пожаловать в рай Скачать торрент  

Добро пожаловать в рай / Порок / Viсе
«Самый смертельный порок это месть»


  • Год выпуска: 2014
  • Страна: США
  • Жанр: фантастика, боевик, триллер
  • Продолжительность: 01:36:23
  • Перевод: Дубляж - [Чистый звук]
  • Субтитры: английские (SDH), английские
  • Режиссер: Брайан А Миллер / Brian A Miller
  • В ролях:

    Эмбир Чилдерс (Kelly), Томас Джейн (Roy), Брайан Гринберг (Evan), Брюс Уиллис (Julian), Джонатон Шек (Chris), Шарлотта Кирк (Melissa), Бретт Гранстафф (James), Райан О’Нан (Det. Matthews), Дэвид Гордон (Mitch), Колин Эглсфилд (Reiner), Камерон Брекслер (Keith), Джесси Пруэтт (Officer Pullman)

  • Описание:
    Действие происходит в относительно недалеком будущем, когда для богачей создан специальный город-курорт, основные обитатели которых и обслуга - андроиды. Туристы за соответствующую цену могут осуществить здесь самые безумные свои фантазии, а андроиды, пострадавшие от рук людей, направляются на перезагрузку памяти. Но однажды случается сбой, и женщина-андроид обретает память о всех кошмарах, которым богатые извращенцы подвергали ее и остальных искусственных людей. И она решает отомстить...
  • Рейтинг:



  • Качество: BDRip 1080p
  • Формат: :MKV
  • Видео кодек: AVC
  • Аудио кодек: AC3
  • Видео: 1920x800 (2.40:1), 9099 kbps, 23,976 fps, 0,247 bpp
  • Аудио №1: русский / 2.0 / 48 kHz / 192 kbps / 16 bit
  • Аудио №2: английский / 5.1 / 48 kHz / 640 kbps / 16 bit
  • Релиз от: GEKADOL

    Код:

    General
    Unique ID                                : 208599001281429731816264034818153939023 (0x9CEEB4CFAA42D9B79C8FF74E9F06804F)
    Complete name                            : F:\Dobro.pozhalovat.v.raj.2015.D.BDRip.1080p.mkv
    Format                                   : Matroska
    Format version                           : Version 4 / Version 2
    File size                                : 6.68 GiB
    Duration                                 : 1h 36mn
    Overall bit rate                         : 9 927 Kbps
    Encoded date                             : UTC 2015-06-04 23:44:00
    Writing application                      : mkvmerge v7.2.0 ('On Every Street') 64bit built on Sep 13 2014 15:52:10
    Writing library                          : libebml v1.3.0 + libmatroska v1.4.1

    Video
    ID                                       : 1
    Format                                   : AVC
    Format/Info                              : Advanced Video Codec
    Format profile                           : High@L4.1
    Format settings, CABAC                   : Yes
    Format settings, ReFrames                : 5 frames
    Codec ID                                 : V_MPEG4/ISO/AVC
    Duration                                 : 1h 36mn
    Bit rate                                 : 9 099 Kbps
    Width                                    : 1 920 pixels
    Height                                   : 800 pixels
    Display aspect ratio                     : 2.40:1
    Frame rate                               : 23.976 fps
    Color space                              : YUV
    Chroma subsampling                       : 4:2:0
    Bit depth                                : 8 bits
    Scan type                                : Progressive
    Bits/(Pixel*Frame)                       : 0.247
    Stream size                              : 5.99 GiB (90%)
    Writing library                          : x264 core 144 r2525 40bb568
    Encoding settings                        : cabac=1 / ref=5 / deblock=1:-3:-3 / analyse=0x3:0x113 / me=umh / subme=8 / psy=1 / psy_rd=1.00:0.00 / mixed_ref=1 / me_range=16 / chroma_me=1 / trellis=1 / 8x8dct=1 / cqm=0 / deadzone=21,11 / fast_pskip=1 / chroma_qp_offset=-2 / threads=24 / lookahead_threads=4 / sliced_threads=0 / nr=0 / decimate=1 / interlaced=0 / bluray_compat=0 / constrained_intra=0 / bframes=3 / b_pyramid=2 / b_adapt=2 / b_bias=0 / direct=3 / weightb=1 / open_gop=0 / weightp=2 / keyint=240 / keyint_min=24 / scenecut=40 / intra_refresh=0 / rc_lookahead=50 / rc=2pass / mbtree=1 / bitrate=9099 / ratetol=1.0 / qcomp=0.60 / qpmin=0 / qpmax=69 / qpstep=4 / cplxblur=20.0 / qblur=0.5 / ip_ratio=1.40 / aq=1:1.00
    Language                                 : English
    Default                                  : Yes
    Forced                                   : No

    Audio #1
    ID                                       : 2
    Format                                   : AC-3
    Format/Info                              : Audio Coding 3
    Mode extension                           : CM (complete main)
    Codec ID                                 : A_AC3
    Duration                                 : 1h 36mn
    Bit rate mode                            : Constant
    Bit rate                                 : 192 Kbps
    Channel(s)                               : 2 channels
    Channel positions                        : Front: L R
    Sampling rate                            : 48.0 KHz
    Bit depth                                : 16 bits
    Compression mode                         : Lossy
    Stream size                              : 132 MiB (2%)
    Language                                 : Russian
    Default                                  : Yes
    Forced                                   : No

    Audio #2
    ID                                       : 3
    Format                                   : AC-3
    Format/Info                              : Audio Coding 3
    Mode extension                           : CM (complete main)
    Codec ID                                 : A_AC3
    Duration                                 : 1h 36mn
    Bit rate mode                            : Constant
    Bit rate                                 : 640 Kbps
    Channel(s)                               : 6 channels
    Channel positions                        : Front: L C R, Side: L R, LFE
    Sampling rate                            : 48.0 KHz
    Bit depth                                : 16 bits
    Compression mode                         : Lossy
    Stream size                              : 441 MiB (6%)
    Language                                 : English
    Default                                  : No
    Forced                                   : No

    Text #1
    ID                                       : 4
    Format                                   : UTF-8
    Codec ID                                 : S_TEXT/UTF8
    Codec ID/Info                            : UTF-8 Plain Text
    Title                                    : SDH
    Language                                 : English
    Default                                  : No
    Forced                                   : No

    Text #2
    ID                                       : 5
    Format                                   : UTF-8
    Codec ID                                 : S_TEXT/UTF8
    Codec ID/Info                            : UTF-8 Plain Text
    Language                                 : English
    Default                                  : No
    Forced                                   : No

    Menu
    00:00:00.000                             : en:00:00:00.000
    00:11:18.761                             : en:00:11:18.761
    00:24:39.812                             : en:00:24:39.812
    00:37:16.192                             : en:00:37:16.192
    01:03:26.511                             : en:01:03:26.511
    01:15:05.960                             : en:01:15:05.960
    01:23:42.226                             : en:01:23:42.226
    01:32:01.766                             : en:01:32:01.766




    Скриншоты:


    pb.wtf



  • Скачать Добро пожаловать в рай через торрент http://i6.imageban.ru/out/2015/06/05/d0e7d88a29c990ef783eca6987eb7359.jpg Скачать фильм Добро пожаловать в рай через торрент бесплантно в хорошем качестве Описание: Действие происходит в относительно недалеком будущем, когда для богачей создан специальный город-курорт, основные обитатели ... 9.3 10 16
    Info! Золотая раздача, скачанное не засчитывается.
    Торрент: Зарегистрирован [2015-06-05 02:48] · скачан: 479 раз
    Статус: T временная
    Размер: 6.68 GB
    Как cкачать? Как скачать Добро пожаловать в рай через торрент | qTorrent

    28-11-2019 20:33  

    Отключить всю рекламу на сайте

    05-06-2015 07:16 Добро пожаловать в рай Скачать торрент  

    а где же 6 минут вставок звука с TS sarcasticpb.wtf



    05-06-2015 09:37 Добро пожаловать в рай Скачать торрент  

    killermax2013 писал(а):

    а где же 6 минут вставок звука с TS sarcastic

    Имеете в виду наглым образом нарушена традиция появления чистого звука?))pb.wtf



    05-06-2015 10:08 Добро пожаловать в рай Скачать торрент  

    GEKADOL писал(а):

    killermax2013 писал(а):

    а где же 6 минут вставок звука с TS sarcastic

    Имеете в виду наглым образом нарушена традиция появления чистого звука?))

    вот именно видно фильм "шедевр" что ганг не стал заморачиватся и портить 6 минут на псевдо TS sarcasticpb.wtf



      Дорогой пользователь! Огромная просьба, поблагодарите релизера, оцените раздачу и оставьте свои комментарий, если Вы скачали Добро пожаловать в рай через торрент бесплатно! Внесите свою лепту в развитие PiratBit!
      Комментировать посты могут только пользователи прошедшие не сложную регистрацию
      Показать сообщения:    

      Добро пожаловать в рай через торрент
      Скачать бесплатно Добро пожаловать в рай
      Добро пожаловать в рай скачать торрент
      Добро пожаловать в рай смотреть онлайн
      Cкачать фильм Добро пожаловать в рай бесплатно
      Добро пожаловать в рай скачать торрент в хорошем качестве
      Добро пожаловать в рай смотреть онлайн бесплатно в хорошем качестве


      Вы не можете начинать темы
      Вы не можете отвечать на сообщения
      Вы не можете редактировать свои сообщения
      Вы не можете удалять свои сообщения
      Вы не можете голосовать в опросах
      Вы не можете прикреплять файлы к сообщениям
      Вы можете скачивать файлы