2 сезон

iTunes

1 сезон

1

iTunes

iTunes

iTunes

1 сезон

RePack

30

ИГРА 18+

pack

ВАЖНО

!!Акция!!

Alien_RageХит недели

RePack

MK11
pack

Забери бонус

RePack

jed

!!Акция!!

Alien_Rage

RePack

fifa19

RePack

Assassins Creed: Odyssey

RePack

NEED FOR SPEED™ PAYBACK

4 сезон

9 сезон

Бесстыжие 9 сезон

Все сериалы

все сериалы на PB.wtf

RePack

FAR CRY 5
  

Барашек Шон / Shaun the Sheep Movie (Марк Бертон ) [2014, мультфильм, комедия, приключения, HDRip] DUB Лицензия pb.wtf

Барашек Шон через торрент pb.wtf

Размер: 1.37 GB | Добавлен: 5 лет 4 мес. назад | Торрент скачан:619 раз
Скачать  

05-06-2015 12:18 Барашек Шон Скачать торрент  

Барашек Шон / Shaun the Sheep Movie


Год выпуска: 2014
Страна: Великобритания, Франция
Жанр: мультфильм, комедия, приключения, семейный
Продолжительность: 01:25:00
Перевод: Дубляж - [Лицензия]
Режиссер: Марк Бертон
В ролях:

Джастин Флетчер (Shaun / Timmy, озвучка), Джон Шпаркс (The Farmer / Bitzer, озвучка), Омид Джалили (Trumper, озвучка), Ричард Веббер (Shirley, озвучка), Кейт Харбор (Timmy's Mum / Meryl, озвучка), Тим Хэндс (Slip, озвучка), Энди Найман (Nuts, озвучка), Саймон Гринхолл (Twins, озвучка), Эмма Тейт (Hazel, озвучка), Джек Полсон (Celebrity with Hair Trouble, озвучка), Шон Коннолли (Maitre D / Golfer / Stylists / Angry Panto Horse / Hospital Characters, озвучка), Генри Бёртон (Junior Doctor / Animal Containment Visitor, озвучка)
Описание:
Мирная жизнь маленькой овцефермы оказывается под угрозой, когда в результате очередной проказы неутомимого Барашка Шона хозяин фермы попадает в большой город. Вдоволь навеселившись полной свободой и безнаказанностью, Шон и остальное стадо барашков начинают волноваться за Фермера и решают отправиться на его спасение. Замаскировавшись под людей, они едут в большой город, где их ждет самое весёлое и эпическое приключение всей жизни.

Качество: HDRip
Формат: AVI
Видео кодек: XviD
Аудио кодек:AC3
Видео: XviD, 720x384 (1.875), 1844 kbps, 24 fps, 0,278 bpp
Аудио: AC3 / 5.1 / 48 kHz / 448 kbps / 16 bit

Код:

General
Complete name                            : D:\Загрузка\Baranch1k.Sh0n.2015.HDRip.1400Mb.avi
Format                                   : AVI
Format/Info                              : Audio Video Interleave
File size                                : 1.37 GiB
Duration                                 : 1h 25mn
Overall bit rate                         : 2 302 Kbps
Writing application                      : VirtualDubMod 1.5.10.2 (build 2540/release)
Writing library                          : VirtualDubMod build 2540/release

Video
ID                                       : 0
Format                                   : MPEG-4 Visual
Format profile                           : Advanced Simple@L5
Format settings, BVOP                    : 2
Format settings, QPel                    : No
Format settings, GMC                     : No warppoints
Format settings, Matrix                  : Default (MPEG)
Codec ID                                 : XVID
Codec ID/Hint                            : XviD
Duration                                 : 1h 25mn
Bit rate                                 : 1 845 Kbps
Width                                    : 720 pixels
Height                                   : 384 pixels
Display aspect ratio                     : 1.875
Frame rate                               : 24.000 fps
Color space                              : YUV
Chroma subsampling                       : 4:2:0
Bit depth                                : 8 bits
Scan type                                : Progressive
Compression mode                         : Lossy
Bits/(Pixel*Frame)                       : 0.278
Stream size                              : 1.10 GiB (80%)
Writing library                          : XviD 1.2.1 (UTC 2008-12-04)

Audio
ID                                       : 1
Format                                   : AC-3
Format/Info                              : Audio Coding 3
Mode extension                           : CM (complete main)
Codec ID                                 : 2000
Duration                                 : 1h 25mn
Bit rate mode                            : Constant
Bit rate                                 : 448 Kbps
Channel(s)                               : 6 channels
Channel positions                        : Front: L C R, Side: L R, LFE
Sampling rate                            : 48.0 KHz
Bit depth                                : 16 bits
Compression mode                         : Lossy
Stream size                              : 272 MiB (19%)
Alignment                                : Split accross interleaves
Interleave, duration                     : 42 ms (1.00 video frame)
Interleave, preload duration             : 500 ms

Скриншоты:


© Оформление by Серёжк@pb.wtf



Скачать Барашек Шон через торрент http://i6.imageban.ru/out/2015/06/05/e5c772e1b22fc8786d8afd894813d42d.png Скачать фильм Барашек Шон через торрент бесплантно в хорошем качестве Описание: Мирная жизнь маленькой овцефермы оказывается под угрозой, когда в результате очередной проказы неутомимого Барашка Шона хозяин ... 10 10 11
Торрент: Зарегистрирован [2015-06-05 12:18] · скачан: 619 раз
Статус: √ проверено
Размер: 1.37 GB
Как cкачать? Как скачать Барашек Шон через торрент | qTorrent

28-11-2019 20:33  

Отключить всю рекламу на сайте

    Дорогой пользователь! Огромная просьба, поблагодарите релизера, оцените раздачу и оставьте свои комментарий, если Вы скачали Барашек Шон через торрент бесплатно! Внесите свою лепту в развитие PiratBit!
    Комментировать посты могут только пользователи прошедшие не сложную регистрацию
    Показать сообщения:    

    Барашек Шон через торрент
    Скачать бесплатно Барашек Шон
    Барашек Шон скачать торрент
    Барашек Шон смотреть онлайн
    Cкачать фильм Барашек Шон бесплатно
    Барашек Шон скачать торрент в хорошем качестве
    Барашек Шон смотреть онлайн бесплатно в хорошем качестве


    Вы не можете начинать темы
    Вы не можете отвечать на сообщения
    Вы не можете редактировать свои сообщения
    Вы не можете удалять свои сообщения
    Вы не можете голосовать в опросах
    Вы не можете прикреплять файлы к сообщениям
    Вы можете скачивать файлы