Anonymous, доброй ночи, присоединяйтесь к нам в Telegram!, здесь всегда актуальный адрес сайта, оперативная поддержка и многое другое!

>

5.6

iTunes

7.4

iTunes

7.9

MVO

1

7.7

1 сезон

6.8

iTunes

7.3

1 сезон

13

6.7

1 сезон

8.3

RePack

30

PREMIUM

pack

9.9

Лицензия

ВАЖНО

ИГРА 18+

pack

7.3

RePack

MK11

7.7

RePack

jed

7.8

RePack

fifa19

8.5

RePack

RDR2

RePack

NEED FOR SPEED™ PAYBACK

4 сезон

9 сезон

Бесстыжие 9 сезон

Все сериалы

все сериалы на PB.wtf

RePack

FAR CRY 5

Anonymous, доброй ночи, мы катастрофически не успеваем собрать деньги на оплату серверов, помогите нам пожалуйста 5,10,15р., для нас важна любая помощь . В качестве благодарности мы отключим Вам всю рекламу на сайте (укажите свой ник в строку Ваше имя)!

×
  
Magnet ссылка

Перевозчик - Трилогия / The Transporter - Trilogy (Кори Юэнь / Corey Yuen) [2002, 2005, 2008, Франция, США, боевик, триллер, криминал, BDRip 720p,DUB] 60fps от R.G. HD-Films pb.wtf

Перевозчик - Трилогия через торрент pb.wtf

Качают: 1 [ 0 KB/s ]
Размер: 11 GB | Добавлен: 6 лет 4 мес. назад | Торрент скачан:289 раз
Смотреть онлайн Перевозчик - Трилогия | Скачать    Ребята, помогите собрать деньги на оплату серверов!!!

05-06-2015 12:32 Перевозчик - Трилогия Скачать торрент  

Перевозчик - Трилогия / The Transporter - Trilogy
Перевозчик / The Transporter
Год выпуска: 2002
Страна: Франция - США
Жанр: боевик, триллер, криминал
Продолжительность: 01:32:09
Перевод: Дубляж
Субтитры: Русские (полные)

Режиссер: Луи Летерье, Кори Юэнь
Продюссер: Люк Бессон, Стив Чесман, Дэвид Лаи
Сценарий: Люк Бессон, Роберт Марк Кэмен

Бюджет: $21 000 000
Премьера в мире: 2 октября 2002

IMDB 6.80 (211 487)


В ролях: Джейсон Стэйтем, Шу Ци, Мэтт Шульце, Франсуа Берлеан, Рик Янг, Даг Рэнд, Дидье Сен Мелен, Тони Десканвелль, Лорен Деспонд, Маттье Альбертини,

Роли дублировали: Евгений Дятлов, Евгения Игумнова, Вадим Гущин, Сергей Паршин, Валерий Кухарешин

Описание: Бывший десантник Фрэнк Мартин имеет неплохой бизнес — перевозит любые грузы по французскому Средиземноморью и делает свою работу быстро и качественно. Недостатка в клиентах нет, ведь он всегда неукоснительно соблюдает три правила: не меняет условий сделки, не спрашивает никаких имен и никогда не заглядывает в багаж. Но однажды, перевозя груз клиента по имени Уолл Стрит, Фрэнк обнаруживает, что мешок шевелится. Впервые за все время Мартин нарушает правило, заглядывает внутрь пакета и обнаруживает там красивую женщину, которая оказывается дочерью видного китайского мафиози...


Качество: BDRip 720p / 60 Fps
Формат: MKV
Видео кодек: H.264
Аудио кодек: AC3
Видео: x264, 1280 x 544 (2,35:1), 4820 kbps, 60,000 fps, ( 0.115 bpp)
Аудио#1: AC-3, 48.0 KHz, 6 ch, 384 Kbps ( Dub )
Навигация по главам: есть

Автор рипа: slaventi-69
скриншот   скриншот   скриншот   скриншот   скриншот   скриншот  


x264 [info]: frame I:2534 Avg QP:14.19 size:102202
x264 [info]: frame P:88132 Avg QP:16.87 size: 22375
x264 [info]: frame B:242152 Avg QP:20.38 size: 4881
x264 [info]: consecutive B-frames: 3.9% 4.5% 14.0% 17.8% 59.7%


Общее
Уникальный идентификатор : 234555781922404706701452865411285117199 (0xB075CCE73BED19BAB52145A368C9E90F)
Полное имя : E:\The Transporter trilogia\The.Transporter.(2002).BDRip.720p.(60 Fps).mkv
Формат : Matroska
Версия формата : Version 4 / Version 2
Размер файла : 3,43 Гбайт
Продолжительность : 1 ч. 32 м.
Общий поток : 5310 Кбит/сек
Название фильма : Перевозчик / The Transporter (2002) BDRip 720p (60 Fps)
Дата кодирования : UTC 2015-06-02 08:55:20
Программа кодирования : mkvmerge v6.2.0 ('Promised Land') built on Apr 28 2013 12:22:01
Библиотека кодирования : libebml v1.3.0 + libmatroska v1.4.0

Видео
Идентификатор : 1
Формат : AVC
Формат/Информация : Advanced Video Codec
Профиль формата : High@L4.1
Параметр CABAC формата : Да
Параметр ReFrames формата : 4 кадра
Идентификатор кодека : V_MPEG4/ISO/AVC
Продолжительность : 1 ч. 32 м.
Битрейт : 4820 Кбит/сек
Ширина : 1280 пикселей
Высота : 544 пикселя
Соотношение сторон : 2,35:1
Режим частоты кадров : Постоянный
Частота кадров : 60,000 кадров/сек
Цветовое пространство : YUV
Субдискретизация насыщенности : 4:2:0
Битовая глубина : 8 бит
Тип развёртки : Прогрессивная
Бит/(Пиксели*Кадры) : 0.115
Размер потока : 3,11 Гбайт (91%)
Заголовок : The Transporter (2002) BDRip 720p (60 Fps).mkv
Библиотека кодирования : x264 core 130 r2273 b3065e6
Настройки программы : cabac=1 / ref=4 / deblock=1:-1:-1 / analyse=0x3:0x113 / me=umh / subme=8 / psy=1 / psy_rd=1.00:0.00 / mixed_ref=1 / me_range=24 / chroma_me=1 / trellis=2 / 8x8dct=1 / cqm=0 / deadzone=21,11 / fast_pskip=1 / chroma_qp_offset=-2 / threads=8 / lookahead_threads=2 / sliced_threads=0 / nr=0 / decimate=1 / interlaced=0 / bluray_compat=0 / constrained_intra=0 / bframes=4 / b_pyramid=2 / b_adapt=2 / b_bias=0 / direct=1 / weightb=1 / open_gop=0 / weightp=2 / keyint=250 / keyint_min=25 / scenecut=40 / intra_refresh=0 / rc_lookahead=40 / rc=crf / mbtree=1 / crf=15.0 / qcomp=0.60 / qpmin=0 / qpmax=69 / qpstep=4 / ip_ratio=1.40 / aq=1:1.00
Язык : English
Default : Да
Forced : Нет

Аудио
Идентификатор : 2
Формат : AC-3
Формат/Информация : Audio Coding 3
Расширение режима : CM (complete main)
Параметр Endianness формата : Big
Идентификатор кодека : A_AC3
Продолжительность : 1 ч. 32 м.
Вид битрейта : Постоянный
Битрейт : 384 Кбит/сек
Каналы : 6 каналов
Расположение каналов : Front: L C R, Side: L R, LFE
Частота : 48,0 КГц
Битовая глубина : 16 бит
Метод сжатия : С потерями
Размер потока : 254 Мбайт (7%)
Заголовок : Dub
Язык : Russian
Default : Да
Forced : Нет

Текст
Идентификатор : 3
Формат : UTF-8
Идентификатор кодека : S_TEXT/UTF8
Идентификатор кодека/Информация : UTF-8 Plain Text
Заголовок : Русские (полные)
Язык : Russian
Default : Нет
Forced : Нет

Меню
00:00:00.000 : :Chapter 01
00:05:00.000 : :Chapter 02
00:10:00.000 : :Chapter 03
00:15:00.000 : :Chapter 04
00:20:00.000 : :Chapter 05
00:25:00.000 : :Chapter 06
00:30:00.000 : :Chapter 07
00:35:00.000 : :Chapter 08
00:40:00.000 : :Chapter 09
00:45:00.000 : :Chapter 10
00:50:00.000 : :Chapter 11
00:55:00.000 : :Chapter 12
01:00:00.000 : :Chapter 13
01:05:00.000 : :Chapter 14
01:10:00.000 : :Chapter 15
01:15:00.000 : :Chapter 16
01:20:00.000 : :Chapter 17
01:25:00.000 : :Chapter 18
01:30:00.000 : :Chapter 19
Перевозчик 2 / Le Transporteur II
Год выпуска: 2005
Страна: Франция - США
Жанр: боевик, триллер, криминал
Продолжительность: 01:27:07
Перевод: Дубляж
Субтитры: Русские (полные)

Режиссер: Луи Летерье
Продюссер: Люк Бессон, Стив Чесман, Элейн Керацис
Сценарий: Люк Бессон, Роберт Марк Кэмен

Бюджет: $32 000 000
Премьера в мире: 3 августа 2005

IMDB 6.30 (137 378)


В ролях: Джейсон Стэйтем, Алессандро Гассман, Эмбер Валлетта, Кейт Наута, Мэттью Модайн, Джейсон Флеминг, Кит Дэвид, Хантер Клэри, Шеннон Бриггс, Франсуа Берлеан,

Роли дублировали: Евгений Дятлов, Валерий Соловьев, Наталья Суркова, Анна Геллер, Евгений Ганелин

Описание: Бывший сотрудник спецподразделения Фрэнк Мартин, известный также как Перевозчик, уходит от дел и поселяется в Майами, где устраивается шофером в богатую семью. С маленьким сыном этого семейства у него завязываются дружеские отношения.Когда же мальчика похищают, Мартину приходится использовать свои профессиональные навыки, чтобы вернуть парнишку в целости и сохранности, а также раскрыть зловещий план похитителя...


Качество: BDRip 720p / 60 Fps
Формат: MKV
Видео кодек: H.264
Аудио кодек: AC3
Видео: x264, 1280 x 544 (2,35:1), 5630kbps, 60,000 fps, ( 0.135 bpp)
Аудио#1: AC-3, 48.0 KHz, 6 ch, 384 Kbps ( Dub )
Навигация по главам: есть

Автор рипа: slaventi-69
скриншот   скриншот   скриншот   скриншот   скриншот   скриншот  

x264 [info]: frame I:2729 Avg QP:16.06 size: 98964
x264 [info]: frame P:91906 Avg QP:18.78 size: 24004
x264 [info]: frame B:222608 Avg QP:22.47 size: 5944
x264 [info]: consecutive B-frames: 4.0% 7.0% 22.7% 30.5% 35.8%


Общее
Уникальный идентификатор : 205150821188670711115375602247061847684 (0x9A569C6827D949B5927D56136F41BE84)
Полное имя : E:\The Transporter trilogia\The.Transporter.2.(2005).BDRip.720p(60 Fps).mkv
Формат : Matroska
Версия формата : Version 4 / Version 2
Размер файла : 3,78 Гбайт
Продолжительность : 1 ч. 28 м.
Общий поток : 6136 Кбит/сек
Название фильма : Перевозчик.2.(Без цензурная версия) / The Transporter 2 [UnCut Version](2005).BDRip.720p(60 Fps)
Дата кодирования : UTC 2015-06-03 05:47:55
Программа кодирования : mkvmerge v6.2.0 ('Promised Land') built on Apr 28 2013 12:22:01
Библиотека кодирования : libebml v1.3.0 + libmatroska v1.4.0

Видео
Идентификатор : 1
Формат : AVC
Формат/Информация : Advanced Video Codec
Профиль формата : High@L4.1
Параметр CABAC формата : Да
Параметр ReFrames формата : 4 кадра
Идентификатор кодека : V_MPEG4/ISO/AVC
Продолжительность : 1 ч. 28 м.
Битрейт : 5630 Кбит/сек
Ширина : 1280 пикселей
Высота : 544 пикселя
Соотношение сторон : 2,35:1
Режим частоты кадров : Постоянный
Частота кадров : 60,000 кадров/сек
Цветовое пространство : YUV
Субдискретизация насыщенности : 4:2:0
Битовая глубина : 8 бит
Тип развёртки : Прогрессивная
Бит/(Пиксели*Кадры) : 0.135
Размер потока : 3,47 Гбайт (92%)
Заголовок : The Transporter 2 [UnCut Version](2005).BDRip.720p(60 Fps).mkv
Библиотека кодирования : x264 core 130 r2273 b3065e6
Настройки программы : cabac=1 / ref=4 / deblock=1:0:0 / analyse=0x3:0x113 / me=umh / subme=8 / psy=1 / psy_rd=1.00:0.00 / mixed_ref=1 / me_range=24 / chroma_me=1 / trellis=2 / 8x8dct=1 / cqm=0 / deadzone=21,11 / fast_pskip=1 / chroma_qp_offset=-2 / threads=8 / lookahead_threads=2 / sliced_threads=0 / nr=0 / decimate=1 / interlaced=0 / bluray_compat=0 / constrained_intra=0 / bframes=4 / b_pyramid=2 / b_adapt=2 / b_bias=0 / direct=1 / weightb=1 / open_gop=0 / weightp=2 / keyint=250 / keyint_min=25 / scenecut=40 / intra_refresh=0 / rc_lookahead=40 / rc=crf / mbtree=1 / crf=16.0 / qcomp=0.60 / qpmin=0 / qpmax=69 / qpstep=4 / ip_ratio=1.40 / aq=1:1.00
Язык : English
Default : Да
Forced : Нет

Аудио
Идентификатор : 2
Формат : AC-3
Формат/Информация : Audio Coding 3
Расширение режима : CM (complete main)
Параметр Endianness формата : Big
Идентификатор кодека : A_AC3
Продолжительность : 1 ч. 28 м.
Вид битрейта : Постоянный
Битрейт : 384 Кбит/сек
Каналы : 6 каналов
Расположение каналов : Front: L C R, Side: L R, LFE
Частота : 48,0 КГц
Битовая глубина : 16 бит
Метод сжатия : С потерями
Размер потока : 242 Мбайт (6%)
Заголовок : Dub
Язык : Russian
Default : Да
Forced : Нет

Текст
Идентификатор : 3
Формат : UTF-8
Идентификатор кодека : S_TEXT/UTF8
Идентификатор кодека/Информация : UTF-8 Plain Text
Заголовок : Русские (полные)
Язык : Russian
Default : Нет
Forced : Нет

Меню
00:00:00.000 : :Chapter 01
00:05:00.000 : :Chapter 02
00:10:00.000 : :Chapter 03
00:15:00.000 : :Chapter 04
00:20:00.000 : :Chapter 05
00:25:00.000 : :Chapter 06
00:30:00.000 : :Chapter 07
00:35:00.000 : :Chapter 08
00:40:00.000 : :Chapter 09
00:45:00.000 : :Chapter 10
00:50:00.000 : :Chapter 11
00:55:00.000 : :Chapter 12
01:00:00.000 : :Chapter 13
01:05:00.000 : :Chapter 14
01:10:00.000 : :Chapter 15
01:15:00.000 : :Chapter 16
01:20:00.000 : :Chapter 17
01:25:00.000 : :Chapter 18
Перевозчик 3 / Transporter 3
Год выпуска: 2008
Страна: Франция - США
Жанр: боевик, триллер, криминал, приключения
Продолжительность: 01:42:30
Перевод: Дубляж
Субтитры: Русские (полные)

Режиссер: Оливье Мегатон
Продюссер: Люк Бессон, Стив Чесман
Сценарий: Люк Бессон, Роберт Марк Кэмен

Бюджет: €30 000 000
Премьера в мире: 26 ноября 2008

IMDB 6.00 (108 547)


В ролях: Джейсон Стэйтем, Наталья Рудакова, Франсуа Берлеан, Роберт Неппер, Ерун Краббе, Алекс Коболд, Дэвид Атракчи, Ян Сандберг, Эрик Эбони, Дэвид Камменос,

Роли дублировали: Александр Рахленко, Рамиля Искандер, Борис Шувалов, Александр Груздев, Александр Новиков

Описание: После своих последних приключений в Майами, Фрэнк Мартин решил поменять работу «перевозчика» на спокойную и уединенную жизнь во французской Ривьере. Но его планам не суждено было сбыться, когда к нему обратился бывший солдат из отряда «Дельта» Йонас Джонсон. Он рассказал, что по заказу корпорации «Ecocorp», занимающейся переработкой и утилизацией отходов, похищена Валентина — дочь украинского министра по охране окружающей среды Леонида Фазилева — чтобы путем вымогательства получить официальное разрешение для утилизации ядовитых отходов в Украине.Теперь задача героя — доставить Валентину через Европу в Одессу. Чтобы обеспечить выполнение задания, Джонсон одевает Фрэнку и Валентине электронные браслеты, которые могут взорваться, если их обладатели удаляются на 20 метров от автомобиля. Выполняя это задание, главному герою придется столкнуться с новыми опасностями, которые связаны не только с его заказом...


Качество: BDRip 720p / 60 Fps
Формат: MKV
Видео кодек: H.264
Аудио кодек: AC3
Видео: x264, 1280 x 544 (2,35:1), 4839 kbps, 60,000 fps, ( 0.116 bpp)
Аудио#1: AC-3, 48.0 KHz, 6 ch, 384 Kbps ( Dub )
Навигация по главам: есть

Автор рипа: slaventi-69
скриншот   скриншот   скриншот   скриншот   скриншот   скриншот  


x264 [info]: frame I:3539 Avg QP:16.50 size: 88551
x264 [info]: frame P:101777 Avg QP:19.70 size: 21828
x264 [info]: frame B:261222 Avg QP:22.75 size: 4739
x264 [info]: consecutive B-frames: 3.2% 7.5% 20.1% 24.5% 44.7%


Общее
Уникальный идентификатор : 200812959936860389481765320098027074924 (0x97132B55B1C6C85B9EC0E182AE62F56C)
Полное имя : E:\The Transporter trilogia\The.Transporter.3.(2008).BDRip.720p.(60 Fps).mkv
Формат : Matroska
Версия формата : Version 4 / Version 2
Размер файла : 3,79 Гбайт
Продолжительность : 1 ч. 41 м.
Общий поток : 5329 Кбит/сек
Название фильма : Перевозчик 3 / The Transporter 3 (2008) BDRip 720p (60 Fps)
Дата кодирования : UTC 2015-06-04 06:02:40
Программа кодирования : mkvmerge v6.2.0 ('Promised Land') built on Apr 28 2013 12:22:01
Библиотека кодирования : libebml v1.3.0 + libmatroska v1.4.0

Видео
Идентификатор : 1
Формат : AVC
Формат/Информация : Advanced Video Codec
Профиль формата : High@L4.1
Параметр CABAC формата : Да
Параметр ReFrames формата : 4 кадра
Идентификатор кодека : V_MPEG4/ISO/AVC
Продолжительность : 1 ч. 41 м.
Битрейт : 4839 Кбит/сек
Ширина : 1280 пикселей
Высота : 544 пикселя
Соотношение сторон : 2,35:1
Режим частоты кадров : Постоянный
Частота кадров : 60,000 кадров/сек
Цветовое пространство : YUV
Субдискретизация насыщенности : 4:2:0
Битовая глубина : 8 бит
Тип развёртки : Прогрессивная
Бит/(Пиксели*Кадры) : 0.116
Размер потока : 3,44 Гбайт (91%)
Заголовок : The Transporter 3 (2008) BDRip 720p (60 Fps).mkv
Библиотека кодирования : x264 core 130 r2273 b3065e6
Настройки программы : cabac=1 / ref=4 / deblock=1:-1:-1 / analyse=0x3:0x113 / me=umh / subme=8 / psy=1 / psy_rd=1.00:0.00 / mixed_ref=1 / me_range=24 / chroma_me=1 / trellis=2 / 8x8dct=1 / cqm=0 / deadzone=21,11 / fast_pskip=1 / chroma_qp_offset=-2 / threads=8 / lookahead_threads=2 / sliced_threads=0 / nr=0 / decimate=1 / interlaced=0 / bluray_compat=0 / constrained_intra=0 / bframes=4 / b_pyramid=2 / b_adapt=2 / b_bias=0 / direct=1 / weightb=1 / open_gop=0 / weightp=2 / keyint=250 / keyint_min=25 / scenecut=40 / intra_refresh=0 / rc_lookahead=40 / rc=crf / mbtree=1 / crf=17.0 / qcomp=0.60 / qpmin=0 / qpmax=69 / qpstep=4 / ip_ratio=1.40 / aq=1:1.00
Язык : English
Default : Да
Forced : Нет

Аудио
Идентификатор : 2
Формат : AC-3
Формат/Информация : Audio Coding 3
Расширение режима : CM (complete main)
Параметр Endianness формата : Big
Идентификатор кодека : A_AC3
Продолжительность : 1 ч. 41 м.
Вид битрейта : Постоянный
Битрейт : 384 Кбит/сек
Каналы : 6 каналов
Расположение каналов : Front: L C R, Side: L R, LFE
Частота : 48,0 КГц
Битовая глубина : 16 бит
Метод сжатия : С потерями
Размер потока : 280 Мбайт (7%)
Заголовок : Dub
Язык : Russian
Default : Да
Forced : Нет

Текст
Идентификатор : 3
Формат : UTF-8
Идентификатор кодека : S_TEXT/UTF8
Идентификатор кодека/Информация : UTF-8 Plain Text
Заголовок : Русские (полные)
Язык : Russian
Default : Нет
Forced : Нет

Меню
00:00:00.000 : :Chapter 01
00:07:40.710 : :Chapter 02
00:16:40.874 : :Chapter 03
00:24:08.989 : :Chapter 04
00:32:56.474 : :Chapter 05
00:42:38.889 : :Chapter 06
00:51:17.032 : :Chapter 07
01:00:12.317 : :Chapter 08
01:10:46.825 : :Chapter 09
01:19:47.157 : :Chapter 10
01:26:35.023 : :Chapter 11
01:35:51.871 : :Chapter 12
01:43:32.873 : :Chapter 13
pb.wtf



Скачать Перевозчик - Трилогия через торрент http://i69.fastpic.ru/big/2015/0605/29/047932352506477a82b8783eebbb0a29.gif Скачать, смотреть онлайн Перевозчик - Трилогия бесплантно в хорошем качестве Описание: Бывший десантник Фрэнк Мартин имеет неплохой бизнес — перевозит любые грузы по французскому Средиземноморью и делает свою работу ... 9.7 10 32
Info! Золотая раздача, скачанное не засчитывается.
Торрент: Зарегистрирован [2015-06-05 12:32] · скачан: 289 раз
Статус: √ проверено
Размер: 11 GB
Как cкачать? Как скачать Перевозчик - Трилогия через торрент | UTorrent

28-11-2019 20:33  

Отключить всю рекламу на сайте

05-06-2015 13:16 Перевозчик - Трилогия Скачать торрент  

Щщекарно! pb.wtf



05-06-2015 13:27 Перевозчик - Трилогия Скачать торрент  

Спасибо. Готовлю потихоньку фильмографию, как предлагали. Надеюсь скоро закончу. Если свет не будут отключать.pb.wtf



05-06-2015 13:32 Перевозчик - Трилогия Скачать торрент  

slaventi-69, Поднимите настройки кодека. )))pb.wtf



05-06-2015 13:35 Перевозчик - Трилогия Скачать торрент  

Без вопросов подправим.pb.wtf



05-06-2015 13:58 Перевозчик - Трилогия Скачать торрент  

супер ! спасибо ) забираю однозначно !pb.wtf



05-06-2015 18:51 Перевозчик - Трилогия Скачать торрент  

огонь.........поддержу :)pb.wtf



    Дорогой пользователь! Огромная просьба, поблагодарите релизера, оцените раздачу и оставьте свои комментарий, если Вы скачали Перевозчик - Трилогия через торрент бесплатно!
    Комментировать посты могут только пользователи прошедшие не сложную регистрацию
    Показать сообщения:    

    Перевозчик - Трилогия через торрент
    Скачать бесплатно Перевозчик - Трилогия
    Перевозчик - Трилогия скачать торрент
    Перевозчик - Трилогия смотреть онлайн
    Cкачать фильм Перевозчик - Трилогия бесплатно
    Перевозчик - Трилогия скачать торрент в хорошем качестве
    Перевозчик - Трилогия смотреть онлайн бесплатно в хорошем качестве


    Вы не можете начинать темы
    Вы не можете отвечать на сообщения
    Вы не можете редактировать свои сообщения
    Вы не можете удалять свои сообщения
    Вы не можете голосовать в опросах
    Вы не можете прикреплять файлы к сообщениям
    Вы можете скачивать файлы